Página 1 de 2 12 ÚltimoÚltimo
Resultados 1 al 25 de 31

Tema: Kingsman: The Golden Circle (2017) 2160p 4k UHD HDR Dual Latino-Inglés [Subt. Esp] (Thriller. Acción)

  1. #1
    Let's Go

    Avatar de Brady
    Fecha de ingreso
    01 jun, 16
    Edad
    21
    Mensajes
    1,287
    Última Actividad
    hoy @ 07:59
    Nacionalidad
    Mexico

    Sexo
    Hombre

    Poder de reputación
    30

    Predeterminado Kingsman: The Golden Circle (2017) 2160p 4k UHD HDR Dual Latino-Inglés [Subt. Esp] (Thriller. Acción)






    Título Original: Kingsman: The Golden Circle
    Año: 2017
    Duración: 141 min.
    País: United Kingdom
    Director: Matthew Vaught
    Guion: Matthew Vaughn, Jane Goldman (Personajes: Dave Gibbons, Mark Millar)
    Reparto: Taron Egerton, Colin Firth, Julianne Moore, Mark Strong, Halle Berry, Pedro Pascal, Channing Tatum, Jeff Bridges, Elton John, Bruce Greenwood, Emily Watson, Edward Holcroft, Hanna Alström, Sophie Cookson, Michael Gambon, Poppy Delevingne, Björn Granath, Samantha Womack, Tom Benedict Knight, Alessandro De Marco
    Productora: Coproducción Reino Unido-Estados Unidos; Twentieth Century Fox Film Corporation / Marv Films / TSG Entertainment
    Género: Thriller. Acción. Comedia | Secuela. Espionaje. Cómic


    SINOPSIS
    Cuando el cuartel general de la agencia secreta es destruido, se descubre una organización de espionaje aliada en EE.UU. llamada Statesman, cuyo origen se remonta a la fecha en que ambas fueron fundadas. En una nueva aventura que pone a prueba la fuerza y el ingenio de sus agentes, ambas organizaciones secretas de élite aúnan sus esfuerzos para intentar derrotar a su enemigo común y salvar al mundo... algo que está convirtiéndose en una especie de hábito para Eggsy.

    TRAILER


    Datos Técnicos
    Video:
    MPEGH HEVC / 2160p / High Profile 5.1 / 12.9 mbps

    Audio:
    Español Latino / AC3 5.1/ 448 kbps / 48kHz / Bluray 4k
    Inglés / TrueHD/Atmos 7.1 / 5421/9927 kbps / 48kHz / Bluray 4k
    Inglés / AC3 5.1/ 640 kbps / 48kHz / Bluray 4k

    Subs:
    Español Latino / SubRip / Bluray 4k
    Español Latino Forzados / SubRip / Bluray 4k
    Español Latino / Sup / Bluray 4k
    Inglés Forzados / SubRip / Bluray 4k
    Inglés / Sup / Bluray 4k
    Inglés Forzados / Sup / Bluray 4k


    Código:
    General
    Unique ID                                : 178357272987525907780135877983151841577 (0x862E5C7D25A541B9B88818D7B11FE129)
    Format                                   : Matroska
    Format version                           : Version 4 / Version 2
    File size                                : 19.2 GiB
    Duration                                 : 2 h 21 min
    Overall bit rate mode                    : Variable
    Overall bit rate                         : 19.5 Mb/s
    Encoded date                             : UTC 2018-01-11 22:33:39
    Writing application                      : mkvmerge v9.9.0 ('Pick Up') 64bit
    Writing library                          : libebml v1.3.4 + libmatroska v1.4.5
    Uploader                                 : Brady
    Web                                      : www.club-hd.com
    
    Video
    ID                                       : 1
    Format                                   : HEVC
    Format/Info                              : High Efficiency Video Coding
    Format profile                           : Main 10@L5.1@High
    Codec ID                                 : V_MPEGH/ISO/HEVC
    Duration                                 : 2 h 21 min
    Bit rate                                 : 12.9 Mb/s
    Width                                    : 3 840 pixels
    Height                                   : 1 608 pixels
    Display aspect ratio                     : 2.40:1
    Frame rate mode                          : Constant
    Frame rate                               : 23.976 (24000/1001) FPS
    Color space                              : YUV
    Chroma subsampling                       : 4:2:0 (Type 2)
    Bit depth                                : 10 bits
    Bits/(Pixel*Frame)                       : 0.087
    Stream size                              : 12.7 GiB (66%)
    Writing library                          : x265 2.6+4-f7498acb3874:[Windows][GCC 7.2.0][64 bit] 10bit
    Encoding settings                        : cpuid=1173503 / frame-threads=4 / numa-pools=16 / wpp / no-pmode / no-pme / no-psnr / no-ssim / log-level=2 / input-csp=1 / input-res=3840x1608 / interlace=0 / total-frames=202891 / level-idc=51 / high-tier=1 / uhd-bd=0 / ref=4 / no-allow-non-conformance / repeat-headers / annexb / aud / hrd / info / hash=0 / no-temporal-layers / no-open-gop / min-keyint=24 / keyint=240 / bframes=4 / b-adapt=2 / b-pyramid / bframe-bias=0 / rc-lookahead=25 / lookahead-slices=4 / scenecut=40 / no-intra-refresh / ctu=64 / min-cu-size=8 / rect / no-amp / max-tu-size=32 / tu-inter-depth=1 / tu-intra-depth=1 / limit-tu=0 / rdoq-level=2 / dynamic-rd=0.00 / no-ssim-rd / signhide / no-tskip / nr-intra=0 / nr-inter=0 / no-constrained-intra / no-strong-intra-smoothing / max-merge=3 / limit-refs=3 / limit-modes / me=3 / subme=3 / merange=57 / temporal-mvp / weightp / no-weightb / no-analyze-src-pics / deblock=-3:-3 / no-sao / no-sao-non-deblock / rd=4 / no-early-skip / rskip / no-fast-intra / no-tskip-fast / no-cu-lossless / no-b-intra / no-splitrd-skip / rdpenalty=0 / psy-rd=2.00 / psy-rdoq=1.00 / no-rd-refine / analysis-reuse-mode=0 / no-lossless / cbqpoffs=0 / crqpoffs=0 / rc=crf / crf=17.0 / qcomp=0.60 / qpstep=4 / stats-write=0 / stats-read=0 / vbv-maxrate=160000 / vbv-bufsize=160000 / vbv-init=0.9 / crf-max=0.0 / crf-min=0.0 / ipratio=1.40 / pbratio=1.30 / aq-mode=1 / aq-strength=1.00 / cutree / zone-count=0 / no-strict-cbr / qg-size=32 / no-rc-grain / qpmax=69 / qpmin=0 / no-const-vbv / sar=1 / overscan=0 / videoformat=5 / range=0 / colorprim=9 / transfer=16 / colormatrix=9 / chromaloc=1 / chromaloc-top=2 / chromaloc-bottom=2 / display-window=0 / master-display=G(13250,34500)B(7500,3000)R(34000,16000)WP(15635,16450)L(10000000,50) / max-cll=0,0 / min-luma=0 / max-luma=1023 / log2-max-poc-lsb=8 / vui-timing-info / vui-hrd-info / slices=1 / opt-qp-pps / opt-ref-list-length-pps / no-multi-pass-opt-rps / scenecut-bias=0.05 / no-opt-cu-delta-qp / no-aq-motion / hdr / hdr-opt / no-dhdr10-opt / analysis-reuse-level=5 / scale-factor=0 / refine-intra=0 / refine-inter=0 / refine-mv=0 / no-limit-sao / ctu-info=0 / no-lowpass-dct / refine-mv-type=0 / copy-pic=1
    Language                                 : English
    Default                                  : Yes
    Forced                                   : No
    Color range                              : Limited
    Color primaries                          : BT.2020
    Transfer characteristics                 : PQ
    Matrix coefficients                      : BT.2020 non-constant
    Mastering display color primaries        : R: x=0.680000 y=0.320000, G: x=0.265000 y=0.690000, B: x=0.150000 y=0.060000, White point: x=0.312700 y=0.329000
    Mastering display luminance              : min: 0.0050 cd/m2, max: 1000.0000 cd/m2
    
    Audio #1
    ID                                       : 2
    Format                                   : AC-3
    Format/Info                              : Audio Coding 3
    Codec ID                                 : A_AC3
    Duration                                 : 2 h 21 min
    Bit rate mode                            : Constant
    Bit rate                                 : 448 kb/s
    Channel(s)                               : 6 channels
    Channel positions                        : Front: L C R, Side: L R, LFE
    Sampling rate                            : 48.0 kHz
    Frame rate                               : 31.250 FPS (1536 SPF)
    Bit depth                                : 16 bits
    Compression mode                         : Lossy
    Stream size                              : 452 MiB (2%)
    Title                                    : Latino AC3 5.1 448 kbps Bluray 4k
    Language                                 : Latin
    Service kind                             : Complete Main
    Default                                  : Yes
    Forced                                   : No
    
    Audio #2
    ID                                       : 3
    Format                                   : TrueHD
    Format profile                           : TrueHD+Atmos / TrueHD
    Codec ID                                 : A_TRUEHD
    Duration                                 : 2 h 21 min
    Bit rate mode                            : Variable
    Bit rate                                 : 5 421 kb/s
    Maximum bit rate                         : 9 927 kb/s
    Channel(s)                               : Object Based / 8 channels
    Channel positions                        : Object Based / Front: L C R, Side: L R, Back: L R, LFE
    Sampling rate                            :  / 48.0 kHz
    Frame rate                               : 1 200.000 FPS (40 SPF)
    Compression mode                         : Lossless
    Stream size                              : 5.34 GiB (28%)
    Title                                    : Ingles TrueHD/Atmos 7.1 9927 kbps Bluray 4k
    Language                                 : English
    Default                                  : No
    Forced                                   : No
    
    Audio #3
    ID                                       : 4
    Format                                   : AC-3
    Format/Info                              : Audio Coding 3
    Codec ID                                 : A_AC3
    Duration                                 : 2 h 21 min
    Bit rate mode                            : Constant
    Bit rate                                 : 640 kb/s
    Channel(s)                               : 6 channels
    Channel positions                        : Front: L C R, Side: L R, LFE
    Sampling rate                            : 48.0 kHz
    Frame rate                               : 31.250 FPS (1536 SPF)
    Bit depth                                : 16 bits
    Compression mode                         : Lossy
    Stream size                              : 646 MiB (3%)
    Title                                    : Ingles AC3 5.1640 kbps Bluray 4k
    Language                                 : English
    Service kind                             : Complete Main
    Default                                  : No
    Forced                                   : No
    
    Text #1
    ID                                       : 5
    Format                                   : UTF-8
    Codec ID                                 : S_TEXT/UTF8
    Codec ID/Info                            : UTF-8 Plain Text
    Duration                                 : 2 h 13 min
    Bit rate                                 : 54 b/s
    Count of elements                        : 1672
    Stream size                              : 52.9 KiB (0%)
    Title                                    : Latino
    Language                                 : Latin
    Default                                  : No
    Forced                                   : No
    
    Text #2
    ID                                       : 6
    Format                                   : UTF-8
    Codec ID                                 : S_TEXT/UTF8
    Codec ID/Info                            : UTF-8 Plain Text
    Duration                                 : 1 h 41 min
    Bit rate                                 : 0 b/s
    Count of elements                        : 11
    Stream size                              : 328 Bytes (0%)
    Title                                    : Forzados
    Language                                 : Latin
    Default                                  : Yes
    Forced                                   : No
    
    Text #3
    ID                                       : 7
    Format                                   : PGS
    Muxing mode                              : zlib
    Codec ID                                 : S_HDMV/PGS
    Codec ID/Info                            : Picture based subtitle format used on BDs/HD-DVDs
    Duration                                 : 2 h 19 min
    Bit rate                                 : 9 660 b/s
    Count of elements                        : 3352
    Stream size                              : 9.66 MiB (0%)
    Title                                    : Latino
    Language                                 : Latin
    Default                                  : No
    Forced                                   : No
    
    Text #4
    ID                                       : 8
    Format                                   : UTF-8
    Codec ID                                 : S_TEXT/UTF8
    Codec ID/Info                            : UTF-8 Plain Text
    Duration                                 : 1 h 0 min
    Bit rate                                 : 0 b/s
    Count of elements                        : 6
    Stream size                              : 125 Bytes (0%)
    Title                                    : Forzados
    Language                                 : English
    Default                                  : No
    Forced                                   : No
    
    Text #5
    ID                                       : 9
    Format                                   : PGS
    Muxing mode                              : zlib
    Codec ID                                 : S_HDMV/PGS
    Codec ID/Info                            : Picture based subtitle format used on BDs/HD-DVDs
    Duration                                 : 2 h 13 min
    Bit rate                                 : 12.8 kb/s
    Count of elements                        : 4284
    Stream size                              : 12.2 MiB (0%)
    Title                                    : Ingles
    Language                                 : English
    Default                                  : No
    Forced                                   : No
    
    Text #6
    ID                                       : 10
    Format                                   : PGS
    Muxing mode                              : zlib
    Codec ID                                 : S_HDMV/PGS
    Codec ID/Info                            : Picture based subtitle format used on BDs/HD-DVDs
    Duration                                 : 1 h 0 min
    Bit rate                                 : 34 b/s
    Count of elements                        : 12
    Stream size                              : 15.4 KiB (0%)
    Title                                    : Forzados
    Language                                 : English
    Default                                  : No
    Forced                                   : No











    DESCARGA

    Links Intercambiables





    Compra tu Membresía VIP y apoya a Club-HD!

    Click Aquí para más información.

    ATENCIÓN! Finalmente tenemos TODO el material de Club-HD disponible por Mega, enlaces 100% activos y online hoy







    Compra tu Membresía VIP y apoya a Club-HD!

    Click Aquí para más información.

    ATENCIÓN! Finalmente tenemos TODO el material de Club-HD disponible por Mega, enlaces 100% activos y online hoy







    1. Primero, deben estár registrados, sino no habrá manera de que puedan ver los Enlaces.

    2. Una vez registrados, sólo deben dejar un simple comentario de Siete (7) letras/carácteres mínimo, o también un simple "Me gusta".

    Con eso ya podrán ver los links sin ningún problema.

    Nota: Usamos este sistema para proteger los links de Club-HD, y hasta la fecha funciona muy bien.





    1. Primero, deben estár registrados, sino no habrá manera de que puedan ver los Enlaces.

    2. Una vez registrados, sólo deben dejar un simple comentario de Siete (7) letras/carácteres mínimo, o también un simple "Me gusta".

    Con eso ya podrán ver los links sin ningún problema.

    Nota: Usamos este sistema para proteger los links de Club-HD, y hasta la fecha funciona muy bien.




    Código:
    www.club-hd.com
    Let's Go, Do Your Job.

    Uploaded.net, el filehost recomendado por Club-HD. Si piensan comprar una cuenta premium, pueden hacerlo desde el siguiente banner, de esta manera se ganarían el privilegio de que les resubamos cualquier aporte perdido de Club-HD!



  2. Los siguientes 10 Usuarios dieron Me Gusta a Brady por este Post:

    ⚡Nacho (11/01/2018),beaubinz (13/01/2018),CinefiloCool (13/01/2018),cripp (12/01/2018),DavePR (18/01/2018),fire9194 (12/01/2018),flujo (12/01/2018),Leo (13/01/2018),pamtronii (12/01/2018),parellanocl (18/01/2018)

  3. #2
    Gran Miembro
    Avatar de jramirez05
    Fecha de ingreso
    01 sep, 12
    Mensajes
    189
    Última Actividad
    20/01/2018 @ 13:18
    Nacionalidad
    Costa Rica


    Poder de reputación
    6

    Predeterminado Re: Kingsman: The Golden Circle (2017) 2160p 4k UHD HDR Dual Latino-Inglés [Subt. Esp] (Thriller. Acción)

    gracias

  4. #3
    Gran Miembro
    Avatar de strider_01
    Fecha de ingreso
    15 nov, 15
    Mensajes
    245
    Última Actividad
    21/01/2018 @ 18:59
    Nacionalidad
    Chile

    Sexo
    Hombre

    Poder de reputación
    3

    Predeterminado Re: Kingsman: The Golden Circle (2017) 2160p 4k UHD HDR Dual Latino-Inglés [Subt. Esp] (Thriller. Acción)


  5. #4
    Gran Miembro
    Avatar de flujo
    Fecha de ingreso
    28 dic, 14
    Mensajes
    3,854
    Última Actividad
    hoy @ 01:10
    Nacionalidad
    Mexico

    Sexo
    Hombre

    Poder de reputación
    7

    Predeterminado Re: Kingsman: The Golden Circle (2017) 2160p 4k UHD HDR Dual Latino-Inglés [Subt. Esp] (Thriller. Acción)

    gracias

  6. #5
    Miembro Destacado
    Avatar de virus619
    Fecha de ingreso
    28 ago, 12
    Edad
    29
    Mensajes
    3,125
    Última Actividad
    hoy @ 06:55
    Nacionalidad
    Chile


    Poder de reputación
    10

    Predeterminado Re: Kingsman: The Golden Circle (2017) 2160p 4k UHD HDR Dual Latino-Inglés [Subt. Esp] (Thriller. Acción)


  7. #6
    Miembro Destacado
    Avatar de Josiba
    Fecha de ingreso
    27 ago, 12
    Edad
    49
    Mensajes
    3,548
    Última Actividad
    hoy @ 07:16
    Nacionalidad
    Costa Rica


    Poder de reputación
    10

    Predeterminado Re: Kingsman: The Golden Circle (2017) 2160p 4k UHD HDR Dual Latino-Inglés [Subt. Esp] (Thriller. Acción)


  8. #7
    Gran Miembro
    Avatar de Andreslvl
    Fecha de ingreso
    14 nov, 15
    Edad
    25
    Mensajes
    105
    Última Actividad
    Ayer @ 22:49
    Nacionalidad
    Colombia

    Sexo
    Hombre

    Poder de reputación
    3

    Predeterminado Re: Kingsman: The Golden Circle (2017) 2160p 4k UHD HDR Dual Latino-Inglés [Subt. Esp] (Thriller. Acción)


  9. #8
    Miembro Destacado
    Avatar de samuelabad
    Fecha de ingreso
    27 ago, 12
    Mensajes
    1,038
    Última Actividad
    21/01/2018 @ 15:49
    Nacionalidad
    Dominican Republic


    Poder de reputación
    7

    Predeterminado Re: Kingsman: The Golden Circle (2017) 2160p 4k UHD HDR Dual Latino-Inglés [Subt. Esp] (Thriller. Acción)

    Gracias

  10. #9
    Miembro Destacado
    Avatar de cripp
    Fecha de ingreso
    28 ago, 12
    Mensajes
    4,799
    Última Actividad
    Ayer @ 17:34
    Nacionalidad
    Costa Rica


    Poder de reputación
    12

    Predeterminado Re: Kingsman: The Golden Circle (2017) 2160p 4k UHD HDR Dual Latino-Inglés [Subt. Esp] (Thriller. Acción)

    Gracias por compartir

  11. #10
    Miembro Junior Avatar de mario e
    Fecha de ingreso
    16 nov, 17
    Mensajes
    18
    Última Actividad
    Ayer @ 23:53
    Nacionalidad
    Mexico

    Sexo
    Hombre

    Poder de reputación
    1

    Predeterminado Re: Kingsman: The Golden Circle (2017) 2160p 4k UHD HDR Dual Latino-Inglés [Subt. Esp] (Thriller. Acción)

    siiii en 4k !!!

  12. #11
    Miembro Destacado
    Avatar de JCAvila
    Fecha de ingreso
    07 sep, 12
    Edad
    37
    Mensajes
    3,260
    Última Actividad
    Ayer @ 23:32
    Nacionalidad
    Mexico


    Poder de reputación
    10

    Predeterminado Re: Kingsman: The Golden Circle (2017) 2160p 4k UHD HDR Dual Latino-Inglés [Subt. Esp] (Thriller. Acción)

    gracias!

  13. #12
    Miembro Destacado
    Avatar de SAAEDVI
    Fecha de ingreso
    09 nov, 14
    Mensajes
    486
    Última Actividad
    hoy @ 01:05
    Nacionalidad
    Chile

    Sexo
    Hombre

    Poder de reputación
    4

    Predeterminado Re: Kingsman: The Golden Circle (2017) 2160p 4k UHD HDR Dual Latino-Inglés [Subt. Esp] (Thriller. Acción)

    me gusta

  14. #13
    Gran Miembro
    Avatar de sosalexfame
    Fecha de ingreso
    10 jul, 15
    Ubicación
    Mexico
    Edad
    36
    Mensajes
    970
    Última Actividad
    hoy @ 04:09
    Nacionalidad
    Mexico

    Sexo
    Hombre

    Poder de reputación
    3

    Predeterminado Re: Kingsman: The Golden Circle (2017) 2160p 4k UHD HDR Dual Latino-Inglés [Subt. Esp] (Thriller. Acción)

    gracias

  15. #14
    Gran Miembro
    Avatar de coyote81
    Fecha de ingreso
    30 may, 16
    Edad
    36
    Mensajes
    171
    Última Actividad
    Ayer @ 12:02
    Nacionalidad
    Argentina

    Sexo
    Hombre

    Poder de reputación
    2

    Predeterminado Re: Kingsman: The Golden Circle (2017) 2160p 4k UHD HDR Dual Latino-Inglés [Subt. Esp] (Thriller. Acción)

    muchasss graciass!!

  16. #15
    Need, Search, Find, Share
    Avatar de CinefiloCool
    Fecha de ingreso
    06 abr, 17
    Ubicación
    zion, Rivendel, Hill Valley, pandora, Coruscant o donde viva una aventura
    Edad
    24
    Mensajes
    222
    Última Actividad
    @
    Nacionalidad
    Mexico

    Sexo
    Hombre

    Poder de reputación
    3

    Predeterminado Re: Kingsman: The Golden Circle (2017) 2160p 4k UHD HDR Dual Latino-Inglés [Subt. Esp] (Thriller. Acción)

    Genial Bro, ahora si podras ver las 2 seguidas y con la mejor calidad!

    que excelente pelicula y mas aun todo su soundtrack

    https://open.spotify.com/user/22olepv4icx35y6lb3lspmxaq/playlist/0CvaYAEf0xFSS5HiN0XROj

  17. #16
    Gran Miembro
    Avatar de crischapman
    Fecha de ingreso
    12 abr, 17
    Mensajes
    254
    Última Actividad
    Ayer @ 13:19
    Nacionalidad
    Chile

    Sexo
    Hombre

    Poder de reputación
    1

    Predeterminado Re: Kingsman: The Golden Circle (2017) 2160p 4k UHD HDR Dual Latino-Inglés [Subt. Esp] (Thriller. Acción)

    Gracias!

  18. #17
    Gran Miembro
    Avatar de pepititoma
    Fecha de ingreso
    27 ago, 12
    Mensajes
    106
    Última Actividad
    Ayer @ 19:46
    Nacionalidad
    Argentina


    Poder de reputación
    6

    Predeterminado Re: Kingsman: The Golden Circle (2017) 2160p 4k UHD HDR Dual Latino-Inglés [Subt. Esp] (Thriller. Acción)

    Muchas Gracias

  19. #18
    Miembro Destacado
    Avatar de novatoxp
    Fecha de ingreso
    05 sep, 12
    Mensajes
    3,550
    Última Actividad
    hoy @ 06:30
    Nacionalidad
    Peru


    Poder de reputación
    10

    Predeterminado Re: Kingsman: The Golden Circle (2017) 2160p 4k UHD HDR Dual Latino-Inglés [Subt. Esp] (Thriller. Acción)


  20. #19
    Gran Miembro
    Avatar de banana64
    Fecha de ingreso
    31 may, 16
    Mensajes
    119
    Última Actividad
    21/01/2018 @ 01:16
    Nacionalidad
    Mexico

    Sexo
    Hombre

    Poder de reputación
    2

    Predeterminado Re: Kingsman: The Golden Circle (2017) 2160p 4k UHD HDR Dual Latino-Inglés [Subt. Esp] (Thriller. Acción)

    gracias

  21. #20
    Gran Miembro
    Avatar de jaimepb
    Fecha de ingreso
    20 ago, 15
    Mensajes
    182
    Última Actividad
    Ayer @ 23:15
    Nacionalidad
    Chile

    Sexo
    Hombre

    Poder de reputación
    3

    Predeterminado Re: Kingsman: The Golden Circle (2017) 2160p 4k UHD HDR Dual Latino-Inglés [Subt. Esp] (Thriller. Acción)

    gracias

  22. #21
    Gran Miembro
    Avatar de mcasti61
    Fecha de ingreso
    28 ago, 12
    Ubicación
    eterna primevara
    Edad
    43
    Mensajes
    133
    Última Actividad
    21/01/2018 @ 12:50
    Nacionalidad
    Chile


    Poder de reputación
    6

    Predeterminado Re: Kingsman: The Golden Circle (2017) 2160p 4k UHD HDR Dual Latino-Inglés [Subt. Esp] (Thriller. Acción)

    que bueno contar con ustedes, son lejos la mejor opcion.

  23. #22
    Miembro Destacado
    Avatar de tsubasa100
    Fecha de ingreso
    04 sep, 12
    Mensajes
    2,127
    Última Actividad
    21/01/2018 @ 17:34
    Nacionalidad
    Chile


    Poder de reputación
    8

    Predeterminado Re: Kingsman: The Golden Circle (2017) 2160p 4k UHD HDR Dual Latino-Inglés [Subt. Esp] (Thriller. Acción)

    gracias

  24. #23
    Miembro Destacado
    Avatar de juniorgarabo
    Fecha de ingreso
    16 sep, 12
    Edad
    34
    Mensajes
    2,796
    Última Actividad
    Ayer @ 00:46
    Nacionalidad
    Dominican Republic

    Sexo
    Hombre

    Poder de reputación
    23

    Predeterminado Re: Kingsman: The Golden Circle (2017) 2160p 4k UHD HDR Dual Latino-Inglés [Subt. Esp] (Thriller. Acción)


  25. #24
    Miembro
    Avatar de carlos78
    Fecha de ingreso
    04 jul, 16
    Mensajes
    68
    Última Actividad
    18/01/2018 @ 15:54
    Nacionalidad
    Argentina

    Sexo
    Hombre

    Poder de reputación
    2

    Predeterminado Re: Kingsman: The Golden Circle (2017) 2160p 4k UHD HDR Dual Latino-Inglés [Subt. Esp] (Thriller. Acción)

    graciasssss

  26. #25
    Gran Miembro
    Avatar de parellanocl
    Fecha de ingreso
    12 mar, 13
    Edad
    39
    Mensajes
    891
    Última Actividad
    20/01/2018 @ 11:48
    Nacionalidad
    Chile

    Sexo
    Hombre

    Poder de reputación
    5

    Predeterminado Re: Kingsman: The Golden Circle (2017) 2160p 4k UHD HDR Dual Latino-Inglés [Subt. Esp] (Thriller. Acción)

    Muchas gracias.

Información de tema

Usuarios viendo este tema

Actualmente hay 1 usuarios viendo este tema. (0 miembros y 1 visitantes)

Temas similares

  1. Respuestas: 112
    Último mensaje: Ayer, 22:20
  2. Respuestas: 305
    Último mensaje: Ayer, 12:23
  3. Respuestas: 175
    Último mensaje: 21/01/2018, 14:34
  4. Respuestas: 177
    Último mensaje: 14/01/2018, 16:48
  5. Respuestas: 94
    Último mensaje: 03/01/2018, 19:54

Miembros que han leído este tema: 80

Marcadores

Permisos de publicación

  • No puedes crear nuevos temas
  • No puedes responder temas
  • No puedes subir archivos adjuntos
  • No puedes editar tus mensajes
  •