Resultados 1 al 16 de 16

Tema: Hidden Figures (2016) 2160p 4k UHD HDR Dual Latino-Inglés [Subt. Esp] (Drama. Años 60)

  1. #1
    Brady

    Avatar de Brady
    Fecha de ingreso
    01 jun, 16
    Edad
    21
    Mensajes
    1,240
    Última Actividad
    hoy @ 20:41
    Nacionalidad
    Mexico

    Sexo
    Hombre

    Poder de reputación
    27

    Predeterminado Hidden Figures (2016) 2160p 4k UHD HDR Dual Latino-Inglés [Subt. Esp] (Drama. Años 60)






    Título Original: Hidden Figures
    Año: 2016
    Duración: 126 min.
    País: United States
    Director: Theodore Melfi
    Guion: Allison Schroeder (Libro: Margot Lee Shetterly)
    Productora: Levantine Films / Chernin Entertainment / Fox 2000 Pictures
    Género: Drama | Años 60. Racismo. Comedia dramática. Matemáticas


    SINOPSIS
    Narra la historia nunca contada de tres brillantes mujeres científicas afroamericanas que trabajaron en la NASA a comienzos de los años sesenta (en plena carrera espacial, y asimismo en mitad de la lucha por los derechos civiles de los negros estadounidenses) en el ambicioso proyecto de poner en órbita al astronauta John Glenn.

    TRAILER


    Datos Técnicos
    Video:
    MPEGH HEVC / 2160p / High Profile 5.1 / 14.4 mbps

    Audio:
    Español Latino / AC3 5.1 / 448 kbps / 48kHz / Bluray 4k
    Inglés / DTS-HD MA/ES Matrix/Core 7.1/6.1/5.1 / 4112/1509/1509 kbps / 48kHz / Bluray 4k

    Subs:
    Español Latino / Sup / Bluray 4k
    Inglés / SubRip / Bluray 4k
    Inglés / Sup / Bluray 4k


    Código:
    General
    Unique ID                                : 227796556968182161263414818960183556678 (0xAB6005622DAB95BDA81825F030327A46)
    Format                                   : Matroska
    Format version                           : Version 4 / Version 2
    File size                                : 16.8 GiB
    Duration                                 : 2 h 6 min
    Overall bit rate                         : 19.0 Mb/s
    Encoded date                             : UTC 2017-12-02 23:19:39
    Writing application                      : mkvmerge v9.9.0 ('Pick Up') 64bit
    Writing library                          : libebml v1.3.4 + libmatroska v1.4.5
    Uploader                                 : Brady
    Web                                      : www.club-hd.com
    
    Video
    ID                                       : 1
    Format                                   : HEVC
    Format/Info                              : High Efficiency Video Coding
    Format profile                           : Main 10@L5.1@High
    Codec ID                                 : V_MPEGH/ISO/HEVC
    Duration                                 : 2 h 6 min
    Bit rate                                 : 14.4 Mb/s
    Width                                    : 3 840 pixels
    Height                                   : 1 608 pixels
    Display aspect ratio                     : 2.40:1
    Frame rate mode                          : Constant
    Frame rate                               : 23.976 (24000/1001) FPS
    Color space                              : YUV
    Chroma subsampling                       : 4:2:0 (Type 2)
    Bit depth                                : 10 bits
    Bits/(Pixel*Frame)                       : 0.098
    Stream size                              : 12.8 GiB (76%)
    Writing library                          : x265 2.5+28-7aeabaa92b85:[Windows][GCC 6.2.1][64 bit] 10bit
    Encoding settings                        : cpuid=1173503 / frame-threads=4 / numa-pools=16 / wpp / no-pmode / no-pme / no-psnr / no-ssim / log-level=2 / input-csp=1 / input-res=3840x1608 / interlace=0 / total-frames=182292 / level-idc=51 / high-tier=1 / uhd-bd=0 / ref=4 / no-allow-non-conformance / repeat-headers / annexb / aud / hrd / info / hash=0 / no-temporal-layers / no-open-gop / min-keyint=23 / keyint=250 / bframes=4 / b-adapt=2 / b-pyramid / bframe-bias=0 / rc-lookahead=25 / lookahead-slices=4 / scenecut=40 / no-intra-refresh / ctu=64 / min-cu-size=8 / rect / no-amp / max-tu-size=32 / tu-inter-depth=1 / tu-intra-depth=1 / limit-tu=0 / rdoq-level=2 / dynamic-rd=0.00 / no-ssim-rd / signhide / no-tskip / nr-intra=0 / nr-inter=0 / no-constrained-intra / no-strong-intra-smoothing / max-merge=3 / limit-refs=3 / limit-modes / me=3 / subme=3 / merange=57 / temporal-mvp / weightp / no-weightb / no-analyze-src-pics / deblock=-3:-3 / no-sao / no-sao-non-deblock / rd=4 / no-early-skip / rskip / no-fast-intra / no-tskip-fast / no-cu-lossless / no-b-intra / no-splitrd-skip / rdpenalty=0 / psy-rd=2.00 / psy-rdoq=1.00 / no-rd-refine / analysis-reuse-mode=0 / no-lossless / cbqpoffs=0 / crqpoffs=0 / rc=crf / crf=17.0 / qcomp=0.60 / qpstep=4 / stats-write=0 / stats-read=0 / vbv-maxrate=160000 / vbv-bufsize=160000 / vbv-init=0.9 / crf-max=0.0 / crf-min=0.0 / ipratio=1.40 / pbratio=1.30 / aq-mode=1 / aq-strength=1.00 / cutree / zone-count=0 / no-strict-cbr / qg-size=32 / no-rc-grain / qpmax=69 / qpmin=0 / no-const-vbv / sar=1 / overscan=0 / videoformat=5 / range=0 / colorprim=9 / transfer=16 / colormatrix=9 / chromaloc=1 / chromaloc-top=2 / chromaloc-bottom=2 / display-window=0 / master-display=G(13250,34500)B(7500,3000)R(34000,16000)WP(15635,16450)L(10000000,50) / max-cll=0,0 / min-luma=0 / max-luma=1023 / log2-max-poc-lsb=8 / vui-timing-info / vui-hrd-info / slices=1 / opt-qp-pps / opt-ref-list-length-pps / no-multi-pass-opt-rps / scenecut-bias=0.05 / no-opt-cu-delta-qp / no-aq-motion / hdr / hdr-opt / no-dhdr10-opt / analysis-reuse-level=5 / scale-factor=0 / refine-intra=0 / refine-inter=0 / refine-mv=0 / no-limit-sao / ctu-info=0
    Language                                 : English
    Default                                  : Yes
    Forced                                   : No
    Color range                              : Limited
    Color primaries                          : BT.2020
    Transfer characteristics                 : PQ
    Matrix coefficients                      : BT.2020 non-constant
    Mastering display color primaries        : R: x=0.680000 y=0.320000, G: x=0.265000 y=0.690000, B: x=0.150000 y=0.060000, White point: x=0.312700 y=0.329000
    Mastering display luminance              : min: 0.0050 cd/m2, max: 1000.0000 cd/m2
    
    Audio #1
    ID                                       : 2
    Format                                   : AC-3
    Format/Info                              : Audio Coding 3
    Codec ID                                 : A_AC3
    Duration                                 : 2 h 6 min
    Bit rate mode                            : Constant
    Bit rate                                 : 448 kb/s
    Channel(s)                               : 6 channels
    Channel positions                        : Front: L C R, Side: L R, LFE
    Sampling rate                            : 48.0 kHz
    Frame rate                               : 31.250 FPS (1536 SPF)
    Bit depth                                : 16 bits
    Compression mode                         : Lossy
    Stream size                              : 406 MiB (2%)
    Title                                    : Latino AC3 5.1 448 kbps Bluray 4k
    Language                                 : Latin
    Service kind                             : Complete Main
    Default                                  : Yes
    Forced                                   : No
    
    Audio #2
    ID                                       : 3
    Format                                   : DTS
    Format/Info                              : Digital Theater Systems
    Format profile                           : MA / ES Matrix / Core
    Codec ID                                 : A_DTS
    Duration                                 : 2 h 6 min
    Bit rate mode                            : Variable / Constant / Constant
    Bit rate                                 : 4 112 kb/s / 1 509 kb/s / 1 509 kb/s
    Channel(s)                               : 8 channels / 7 channels / 6 channels
    Channel positions                        : Front: L C R, Side: L R, Back: L R, LFE / Front: L C R, Side: L R, Back: C, LFE / Front: L C R, Side: L R, LFE
    Sampling rate                            : 48.0 kHz
    Frame rate                               : 93.750 FPS (512 SPF)
    Bit depth                                : 24 bits
    Compression mode                         : Lossless / Lossy / Lossy
    Stream size                              : 3.64 GiB (22%)
    Title                                    : DTS-HD MA/Es Matrix/Core 7.1/5.1 4112/1509/1509 kbps Bluray 4k
    Language                                 : English
    Default                                  : No
    Forced                                   : No
    
    Text #1
    ID                                       : 4
    Format                                   : PGS
    Muxing mode                              : zlib
    Codec ID                                 : S_HDMV/PGS
    Codec ID/Info                            : Picture based subtitle format used on BDs/HD-DVDs
    Duration                                 : 2 h 6 min
    Bit rate                                 : 12.1 kb/s
    Count of elements                        : 3916
    Stream size                              : 10.9 MiB (0%)
    Title                                    : Latino
    Language                                 : Latin
    Default                                  : No
    Forced                                   : No
    
    Text #2
    ID                                       : 5
    Format                                   : UTF-8
    Codec ID                                 : S_TEXT/UTF8
    Codec ID/Info                            : UTF-8 Plain Text
    Duration                                 : 2 h 5 min
    Bit rate                                 : 74 b/s
    Count of elements                        : 2322
    Stream size                              : 69.0 KiB (0%)
    Title                                    : Ingles
    Language                                 : English
    Default                                  : No
    Forced                                   : No
    
    Text #3
    ID                                       : 6
    Format                                   : PGS
    Muxing mode                              : zlib
    Codec ID                                 : S_HDMV/PGS
    Codec ID/Info                            : Picture based subtitle format used on BDs/HD-DVDs
    Duration                                 : 2 h 5 min
    Bit rate                                 : 16.2 kb/s
    Count of elements                        : 4862
    Stream size                              : 14.6 MiB (0%)
    Title                                    : Ingles
    Language                                 : English
    Default                                  : No
    Forced                                   : No











    DESCARGA

    Links Intercambiables





    Compra tu Membresía VIP y apoya a Club-HD!

    Click Aquí para más información.

    ATENCIÓN! Finalmente tenemos TODO el material de Club-HD disponible por Mega, enlaces 100% activos y online hoy







    Compra tu Membresía VIP y apoya a Club-HD!

    Click Aquí para más información.

    ATENCIÓN! Finalmente tenemos TODO el material de Club-HD disponible por Mega, enlaces 100% activos y online hoy







    1. Primero, deben estár registrados, sino no habrá manera de que puedan ver los Enlaces.

    2. Una vez registrados, sólo deben dejar un simple comentario de Siete (7) letras/carácteres mínimo, o también un simple "Me gusta".

    Con eso ya podrán ver los links sin ningún problema.

    Nota: Usamos este sistema para proteger los links de Club-HD, y hasta la fecha funciona muy bien.





    1. Primero, deben estár registrados, sino no habrá manera de que puedan ver los Enlaces.

    2. Una vez registrados, sólo deben dejar un simple comentario de Siete (7) letras/carácteres mínimo, o también un simple "Me gusta".

    Con eso ya podrán ver los links sin ningún problema.

    Nota: Usamos este sistema para proteger los links de Club-HD, y hasta la fecha funciona muy bien.




    Código:
    www.club-hd.com
    Let's Go, Do Your Job.

    Uploaded.net, el filehost recomendado por Club-HD. Si piensan comprar una cuenta premium, pueden hacerlo desde el siguiente banner, de esta manera se ganarían el privilegio de que les resubamos cualquier aporte perdido de Club-HD!



  2. Los siguientes 5 Usuarios dieron Me Gusta a Brady por este Post:

    cripp (05/12/2017),flujo (03/12/2017),frmr (04/12/2017),Leo (11/12/2017),rockhowardsnk (03/12/2017)

  3. #2
    Miembro Destacado
    Avatar de cpola
    Fecha de ingreso
    25 feb, 14
    Edad
    49
    Mensajes
    1,742
    Última Actividad
    hoy @ 19:44
    Nacionalidad
    United States

    Sexo
    Hombre

    Poder de reputación
    5

    Predeterminado Re: Hidden Figures (2016) 2160p 4k UHD HDR Dual Latino-Inglés [Subt. Esp] (Drama. Años 60)

    Gracias

  4. #3
    Miembro Destacado
    Avatar de Josiba
    Fecha de ingreso
    27 ago, 12
    Edad
    49
    Mensajes
    3,438
    Última Actividad
    hoy @ 20:13
    Nacionalidad
    Costa Rica


    Poder de reputación
    10

    Predeterminado Re: Hidden Figures (2016) 2160p 4k UHD HDR Dual Latino-Inglés [Subt. Esp] (Drama. Años 60)


  5. #4
    Gran Miembro
    Avatar de josefo08
    Fecha de ingreso
    14 abr, 14
    Edad
    46
    Mensajes
    1,008
    Última Actividad
    hoy @ 15:58
    Nacionalidad
    Colombia

    Sexo
    Hombre

    Poder de reputación
    5

    Predeterminado Re: Hidden Figures (2016) 2160p 4k UHD HDR Dual Latino-Inglés [Subt. Esp] (Drama. Años 60)

    gracias

  6. #5
    Miembro Destacado
    Avatar de novatoxp
    Fecha de ingreso
    05 sep, 12
    Mensajes
    3,429
    Última Actividad
    Ayer @ 21:41
    Nacionalidad
    Peru


    Poder de reputación
    10

    Predeterminado Re: Hidden Figures (2016) 2160p 4k UHD HDR Dual Latino-Inglés [Subt. Esp] (Drama. Años 60)


  7. #6
    Gran Miembro
    Avatar de samuelabad
    Fecha de ingreso
    27 ago, 12
    Mensajes
    1,008
    Última Actividad
    Ayer @ 20:51
    Nacionalidad
    Dominican Republic


    Poder de reputación
    7

    Predeterminado Re: Hidden Figures (2016) 2160p 4k UHD HDR Dual Latino-Inglés [Subt. Esp] (Drama. Años 60)

    Gracias

  8. #7
    Gran Miembro
    Avatar de flujo
    Fecha de ingreso
    28 dic, 14
    Mensajes
    3,638
    Última Actividad
    hoy @ 17:20
    Nacionalidad
    Mexico

    Sexo
    Hombre

    Poder de reputación
    7

    Predeterminado Re: Hidden Figures (2016) 2160p 4k UHD HDR Dual Latino-Inglés [Subt. Esp] (Drama. Años 60)

    gracias

  9. #8
    Miembro Destacado
    Avatar de virus619
    Fecha de ingreso
    28 ago, 12
    Edad
    29
    Mensajes
    3,064
    Última Actividad
    hoy @ 19:39
    Nacionalidad
    Chile


    Poder de reputación
    10

    Predeterminado Re: Hidden Figures (2016) 2160p 4k UHD HDR Dual Latino-Inglés [Subt. Esp] (Drama. Años 60)


  10. #9
    Miembro Destacado
    Avatar de ismar360
    Fecha de ingreso
    28 ago, 12
    Edad
    39
    Mensajes
    1,867
    Última Actividad
    hoy @ 17:48
    Nacionalidad
    El Salvador


    Poder de reputación
    7

    Predeterminado Re: Hidden Figures (2016) 2160p 4k UHD HDR Dual Latino-Inglés [Subt. Esp] (Drama. Años 60)


  11. #10
    Miembro VIP en Club-HD!
    Avatar de muruagam
    Fecha de ingreso
    29 ago, 12
    Ubicación
    Buenos Aires
    Edad
    44
    Mensajes
    1,139
    Última Actividad
    hoy @ 13:02
    Nacionalidad
    Argentina

    Sexo
    Hombre

    Poder de reputación
    7

    Predeterminado Re: Hidden Figures (2016) 2160p 4k UHD HDR Dual Latino-Inglés [Subt. Esp] (Drama. Años 60)


  12. #11
    Gran Miembro
    Avatar de stelgerw
    Fecha de ingreso
    17 jun, 16
    Mensajes
    133
    Última Actividad
    hoy @ 11:25
    Nacionalidad
    Peru

    Sexo
    Hombre

    Poder de reputación
    2

    Predeterminado Re: Hidden Figures (2016) 2160p 4k UHD HDR Dual Latino-Inglés [Subt. Esp] (Drama. Años 60)

    descartgando

  13. #12
    Miembro Destacado
    Avatar de juniorgarabo
    Fecha de ingreso
    16 sep, 12
    Edad
    34
    Mensajes
    2,707
    Última Actividad
    13/12/2017 @ 07:47
    Nacionalidad
    Dominican Republic

    Sexo
    Hombre

    Poder de reputación
    23

    Predeterminado Re: Hidden Figures (2016) 2160p 4k UHD HDR Dual Latino-Inglés [Subt. Esp] (Drama. Años 60)


  14. #13
    Miembro Destacado
    Avatar de cripp
    Fecha de ingreso
    28 ago, 12
    Mensajes
    4,650
    Última Actividad
    hoy @ 18:59
    Nacionalidad
    Costa Rica


    Poder de reputación
    12

    Predeterminado Re: Hidden Figures (2016) 2160p 4k UHD HDR Dual Latino-Inglés [Subt. Esp] (Drama. Años 60)

    Gracias por compartir

  15. #14
    Miembro Destacado
    Avatar de JCAvila
    Fecha de ingreso
    07 sep, 12
    Edad
    37
    Mensajes
    3,115
    Última Actividad
    hoy @ 20:38
    Nacionalidad
    Mexico


    Poder de reputación
    10

    Predeterminado Re: Hidden Figures (2016) 2160p 4k UHD HDR Dual Latino-Inglés [Subt. Esp] (Drama. Años 60)

    gracias!

  16. #15
    Miembro Destacado
    Avatar de joelmax18
    Fecha de ingreso
    28 ago, 12
    Edad
    37
    Mensajes
    1,149
    Última Actividad
    Ayer @ 15:24
    Nacionalidad
    Dominican Republic


    Poder de reputación
    7

    Predeterminado Re: Hidden Figures (2016) 2160p 4k UHD HDR Dual Latino-Inglés [Subt. Esp] (Drama. Años 60)

    gracias

  17. #16
    Gran Miembro
    Avatar de bernyboy
    Fecha de ingreso
    17 dic, 14
    Mensajes
    419
    Última Actividad
    hoy @ 01:21
    Nacionalidad
    Mexico

    Sexo
    Hombre

    Poder de reputación
    4

    Predeterminado Re: Hidden Figures (2016) 2160p 4k UHD HDR Dual Latino-Inglés [Subt. Esp] (Drama. Años 60)

    gracias amigos del club hd

Información de tema

Usuarios viendo este tema

Actualmente hay 1 usuarios viendo este tema. (0 miembros y 1 visitantes)

Temas similares

  1. Respuestas: 106
    Último mensaje: 08/12/2017, 19:01
  2. Respuestas: 25
    Último mensaje: 02/12/2017, 12:48
  3. Respuestas: 223
    Último mensaje: 02/12/2017, 12:44
  4. Respuestas: 17
    Último mensaje: 01/12/2017, 03:33
  5. Respuestas: 111
    Último mensaje: 06/10/2017, 18:20

Miembros que han leído este tema: 43

Marcadores

Permisos de publicación

  • No puedes crear nuevos temas
  • No puedes responder temas
  • No puedes subir archivos adjuntos
  • No puedes editar tus mensajes
  •