Página 1 de 2 12 ÚltimoÚltimo
Resultados 1 al 25 de 35

Tema: The Great Wall (2016) 2160p 4k UHD HDR Dual Latino-Inglés [Subt. Esp] (Acción. Fantástico)

  1. #1
    Brady

    Avatar de Brady
    Fecha de ingreso
    01 jun, 16
    Edad
    21
    Mensajes
    1,240
    Última Actividad
    hoy @ 20:41
    Nacionalidad
    Mexico

    Sexo
    Hombre

    Poder de reputación
    27

    Predeterminado The Great Wall (2016) 2160p 4k UHD HDR Dual Latino-Inglés [Subt. Esp] (Acción. Fantástico)






    Título Original: The Great Wall
    Año: 2016
    Duración: 103 min.
    País: China, United States
    Director: Zhang Yimou
    Guion: Tony Gilroy, Carlo Bernard, Doug Miro (Historia: Max Brooks, Edward Zwick, Marshall Herskovitz)
    Productora: Coproducción China-Estados Unidos; China Film Group / LeVision Pictures / Legendary East / Kava Productions / Legendary Pictures / Atlas Entertainment
    Género: Acción. Fantástico | Siglo XV. Cine épico. Monstruos


    SINOPSIS
    China, siglo XV. Un mercenario inglés (Matt Damon) y otro español (Pedro Pascal) son testigos del misterio que rodea a la construcción de la Gran Muralla China; ambos descubrirán que no se construyó para mantener alejados a los mongoles, sino para algo más peligroso: la mítica muralla ha sido edificada para detener la llegada de monstruos devoradores de carne humana.

    TRAILER


    Datos Técnicos
    Video:
    MPEGH HEVC / 2160p / High Profile 5.1 / 16.4 mbps

    Audio:
    Español Latino / AC3 5.1 / 640 kbps / 48kHz / Bluray 4k
    Inglés / TrueHD/Atmos 7.1 / 4914/7719 kbps / 48kHz / Bluray 4k
    Inglés / AC3 5.1 / 640 kbps / 48kHz / Bluray 4k

    Subs:
    Español Latino / SubRip / Bluray 4k
    Español Latino Forzados / SubRip / Bluray 4k
    Español Latino / Sup / Bluray 4k
    Español Latino Forzados / Sup / Bluray 4k
    Inglés / Sup / Bluray 4k


    Código:
    General
    Unique ID                                : 249679987673444938932382428770616888818 (0xBBD69DD1776095729062867BD2D24DF2)
    Format                                   : Matroska
    Format version                           : Version 4 / Version 2
    File size                                : 16.3 GiB
    Duration                                 : 1 h 43 min
    Overall bit rate mode                    : Variable
    Overall bit rate                         : 22.7 Mb/s
    Encoded date                             : UTC 2017-12-02 06:27:17
    Writing application                      : mkvmerge v9.9.0 ('Pick Up') 64bit
    Writing library                          : libebml v1.3.4 + libmatroska v1.4.5
    Uploader                                 : Brady
    Web                                      : www.club-hd.com
    
    Video
    ID                                       : 1
    Format                                   : HEVC
    Format/Info                              : High Efficiency Video Coding
    Format profile                           : Main 10@L5.1@High
    Codec ID                                 : V_MPEGH/ISO/HEVC
    Duration                                 : 1 h 43 min
    Bit rate                                 : 16.4 Mb/s
    Width                                    : 3 840 pixels
    Height                                   : 1 608 pixels
    Display aspect ratio                     : 2.40:1
    Frame rate mode                          : Constant
    Frame rate                               : 23.976 (24000/1001) FPS
    Color space                              : YUV
    Chroma subsampling                       : 4:2:0 (Type 2)
    Bit depth                                : 10 bits
    Bits/(Pixel*Frame)                       : 0.111
    Stream size                              : 11.8 GiB (72%)
    Writing library                          : x265 2.5+66-dae558b40d99:[Windows][GCC 6.2.1][64 bit] 10bit
    Encoding settings                        : cpuid=1173503 / frame-threads=4 / numa-pools=16 / wpp / no-pmode / no-pme / no-psnr / no-ssim / log-level=2 / input-csp=1 / input-res=3840x1608 / interlace=0 / total-frames=148280 / level-idc=51 / high-tier=1 / uhd-bd=0 / ref=4 / no-allow-non-conformance / repeat-headers / annexb / aud / hrd / info / hash=0 / no-temporal-layers / no-open-gop / min-keyint=1 / keyint=24 / bframes=4 / b-adapt=2 / b-pyramid / bframe-bias=0 / rc-lookahead=25 / lookahead-slices=4 / scenecut=40 / no-intra-refresh / ctu=64 / min-cu-size=8 / rect / no-amp / max-tu-size=32 / tu-inter-depth=1 / tu-intra-depth=1 / limit-tu=0 / rdoq-level=2 / dynamic-rd=0.00 / no-ssim-rd / signhide / no-tskip / nr-intra=0 / nr-inter=0 / no-constrained-intra / no-strong-intra-smoothing / max-merge=3 / limit-refs=3 / limit-modes / me=3 / subme=3 / merange=57 / temporal-mvp / weightp / no-weightb / no-analyze-src-pics / deblock=-3:-3 / no-sao / no-sao-non-deblock / rd=4 / no-early-skip / rskip / no-fast-intra / no-tskip-fast / no-cu-lossless / no-b-intra / no-splitrd-skip / rdpenalty=0 / psy-rd=2.00 / psy-rdoq=1.00 / no-rd-refine / analysis-reuse-mode=0 / no-lossless / cbqpoffs=0 / crqpoffs=0 / rc=crf / crf=17.0 / qcomp=0.60 / qpstep=4 / stats-write=0 / stats-read=0 / vbv-maxrate=160000 / vbv-bufsize=160000 / vbv-init=0.9 / crf-max=0.0 / crf-min=0.0 / ipratio=1.40 / pbratio=1.30 / aq-mode=1 / aq-strength=1.00 / cutree / zone-count=0 / no-strict-cbr / qg-size=32 / no-rc-grain / qpmax=69 / qpmin=0 / no-const-vbv / sar=1 / overscan=0 / videoformat=5 / range=0 / colorprim=9 / transfer=16 / colormatrix=9 / chromaloc=1 / chromaloc-top=2 / chromaloc-bottom=2 / display-window=0 / master-display=G(13250,34500)B(7500,3000)R(34000,16000)WP(15635,16450)L(10000000,0) / max-cll=814,192 / min-luma=0 / max-luma=1023 / log2-max-poc-lsb=8 / vui-timing-info / vui-hrd-info / slices=1 / no-opt-qp-pps / no-opt-ref-list-length-pps / no-multi-pass-opt-rps / scenecut-bias=0.05 / no-opt-cu-delta-qp / no-aq-motion / hdr / hdr-opt / no-dhdr10-opt / analysis-reuse-level=5 / scale-factor=0 / refine-intra=0 / refine-inter=0 / refine-mv=0 / no-limit-sao / ctu-info=0 / no-lowpass-dct / refine-mv-type=0 / copy-pic=1
    Language                                 : English
    Default                                  : Yes
    Forced                                   : No
    Color range                              : Limited
    Color primaries                          : BT.2020
    Transfer characteristics                 : PQ
    Matrix coefficients                      : BT.2020 non-constant
    Mastering display color primaries        : R: x=0.680000 y=0.320000, G: x=0.265000 y=0.690000, B: x=0.150000 y=0.060000, White point: x=0.312700 y=0.329000
    Mastering display luminance              : min: 0.0000 cd/m2, max: 1000.0000 cd/m2
    Maximum Content Light Level              : 814 cd/m2
    Maximum Frame-Average Light Level        : 192 cd/m2
    
    Audio #1
    ID                                       : 2
    Format                                   : AC-3
    Format/Info                              : Audio Coding 3
    Codec ID                                 : A_AC3
    Duration                                 : 1 h 43 min
    Bit rate mode                            : Constant
    Bit rate                                 : 640 kb/s
    Channel(s)                               : 6 channels
    Channel positions                        : Front: L C R, Side: L R, LFE
    Sampling rate                            : 48.0 kHz
    Frame rate                               : 31.250 FPS (1536 SPF)
    Bit depth                                : 16 bits
    Compression mode                         : Lossy
    Stream size                              : 472 MiB (3%)
    Title                                    : Latino AC3 5.1 640 kbps Bluray 4k
    Language                                 : Latin
    Service kind                             : Complete Main
    Default                                  : Yes
    Forced                                   : No
    
    Audio #2
    ID                                       : 3
    Format                                   : TrueHD
    Format profile                           : TrueHD+Atmos / TrueHD
    Codec ID                                 : A_TRUEHD
    Duration                                 : 1 h 43 min
    Bit rate mode                            : Variable
    Bit rate                                 : 4 914 kb/s
    Maximum bit rate                         : 7 719 kb/s
    Channel(s)                               : Object Based / 8 channels
    Channel positions                        : Object Based / Front: L C R, Side: L R, Back: L R, LFE
    Sampling rate                            :  / 48.0 kHz
    Frame rate                               : 1 200.000 FPS (40 SPF)
    Compression mode                         : Lossless
    Stream size                              : 3.54 GiB (22%)
    Title                                    : Ingles TrueHD/Atmos 7.1 4914/7719 kbps Bluray 4k
    Language                                 : English
    Default                                  : No
    Forced                                   : No
    
    Audio #3
    ID                                       : 4
    Format                                   : AC-3
    Format/Info                              : Audio Coding 3
    Codec ID                                 : A_AC3
    Duration                                 : 1 h 43 min
    Bit rate mode                            : Constant
    Bit rate                                 : 640 kb/s
    Channel(s)                               : 6 channels
    Channel positions                        : Front: L C R, Side: L R, LFE
    Sampling rate                            : 48.0 kHz
    Frame rate                               : 31.250 FPS (1536 SPF)
    Bit depth                                : 16 bits
    Compression mode                         : Lossy
    Stream size                              : 472 MiB (3%)
    Title                                    : Ingles AC3 5.1 640 kbps Bluray 4k
    Language                                 : English
    Service kind                             : Complete Main
    Default                                  : No
    Forced                                   : No
    
    Text #1
    ID                                       : 5
    Format                                   : UTF-8
    Codec ID                                 : S_TEXT/UTF8
    Codec ID/Info                            : UTF-8 Plain Text
    Duration                                 : 1 h 34 min
    Bit rate                                 : 31 b/s
    Count of elements                        : 860
    Stream size                              : 21.8 KiB (0%)
    Title                                    : Latino
    Language                                 : Latin
    Default                                  : No
    Forced                                   : No
    
    Text #2
    ID                                       : 6
    Format                                   : UTF-8
    Codec ID                                 : S_TEXT/UTF8
    Codec ID/Info                            : UTF-8 Plain Text
    Duration                                 : 1 h 34 min
    Bit rate                                 : 1 b/s
    Count of elements                        : 56
    Stream size                              : 1.34 KiB (0%)
    Title                                    : Forzados
    Language                                 : Latin
    Default                                  : Yes
    Forced                                   : No
    
    Text #3
    ID                                       : 7
    Format                                   : PGS
    Muxing mode                              : zlib
    Codec ID                                 : S_HDMV/PGS
    Codec ID/Info                            : Picture based subtitle format used on BDs/HD-DVDs
    Duration                                 : 1 h 42 min
    Bit rate                                 : 5 835 b/s
    Count of elements                        : 1722
    Stream size                              : 4.28 MiB (0%)
    Title                                    : Latino
    Language                                 : Latin
    Default                                  : No
    Forced                                   : No
    
    Text #4
    ID                                       : 8
    Format                                   : PGS
    Muxing mode                              : zlib
    Codec ID                                 : S_HDMV/PGS
    Codec ID/Info                            : Picture based subtitle format used on BDs/HD-DVDs
    Duration                                 : 1 h 42 min
    Bit rate                                 : 375 b/s
    Count of elements                        : 114
    Stream size                              : 282 KiB (0%)
    Title                                    : Forzados
    Language                                 : Latin
    Default                                  : No
    Forced                                   : No
    
    Text #5
    ID                                       : 9
    Format                                   : PGS
    Muxing mode                              : zlib
    Codec ID                                 : S_HDMV/PGS
    Codec ID/Info                            : Picture based subtitle format used on BDs/HD-DVDs
    Duration                                 : 1 h 29 min
    Bit rate                                 : 7 692 b/s
    Count of elements                        : 1750
    Stream size                              : 4.91 MiB (0%)
    Title                                    : Ingles
    Language                                 : English
    Default                                  : No
    Forced                                   : No











    DESCARGA

    Links Intercambiables





    Compra tu Membresía VIP y apoya a Club-HD!

    Click Aquí para más información.

    ATENCIÓN! Finalmente tenemos TODO el material de Club-HD disponible por Mega, enlaces 100% activos y online hoy







    Compra tu Membresía VIP y apoya a Club-HD!

    Click Aquí para más información.

    ATENCIÓN! Finalmente tenemos TODO el material de Club-HD disponible por Mega, enlaces 100% activos y online hoy







    1. Primero, deben estár registrados, sino no habrá manera de que puedan ver los Enlaces.

    2. Una vez registrados, sólo deben dejar un simple comentario de Siete (7) letras/carácteres mínimo, o también un simple "Me gusta".

    Con eso ya podrán ver los links sin ningún problema.

    Nota: Usamos este sistema para proteger los links de Club-HD, y hasta la fecha funciona muy bien.





    1. Primero, deben estár registrados, sino no habrá manera de que puedan ver los Enlaces.

    2. Una vez registrados, sólo deben dejar un simple comentario de Siete (7) letras/carácteres mínimo, o también un simple "Me gusta".

    Con eso ya podrán ver los links sin ningún problema.

    Nota: Usamos este sistema para proteger los links de Club-HD, y hasta la fecha funciona muy bien.




    Código:
    www.club-hd.com
    Let's Go, Do Your Job.

    Uploaded.net, el filehost recomendado por Club-HD. Si piensan comprar una cuenta premium, pueden hacerlo desde el siguiente banner, de esta manera se ganarían el privilegio de que les resubamos cualquier aporte perdido de Club-HD!



  2. Los siguientes 10 Usuarios dieron Me Gusta a Brady por este Post:

    alainol (03/12/2017),beaubinz (03/12/2017),cripp (05/12/2017),flujo (02/12/2017),Frafel (07/12/2017),frmr (04/12/2017),Leo (11/12/2017),mat-one (02/12/2017),Max (02/12/2017),mrroot (02/12/2017)

  3. #2
    Miembro Destacado
    Avatar de Josiba
    Fecha de ingreso
    27 ago, 12
    Edad
    49
    Mensajes
    3,438
    Última Actividad
    hoy @ 20:13
    Nacionalidad
    Costa Rica


    Poder de reputación
    10

    Predeterminado Re: The Great Wall (2016) 2160p 4k UHD HDR Dual Latino-Inglés [Subt. Esp] (Acción. Fantástico)


  4. #3
    Miembro Destacado
    Avatar de cpola
    Fecha de ingreso
    25 feb, 14
    Edad
    49
    Mensajes
    1,742
    Última Actividad
    hoy @ 19:44
    Nacionalidad
    United States

    Sexo
    Hombre

    Poder de reputación
    5

    Predeterminado Re: The Great Wall (2016) 2160p 4k UHD HDR Dual Latino-Inglés [Subt. Esp] (Acción. Fantástico)

    Gracias

  5. #4
    Gran Miembro
    Avatar de pablozoladz
    Fecha de ingreso
    27 ago, 12
    Edad
    44
    Mensajes
    590
    Última Actividad
    hoy @ 16:16
    Nacionalidad
    Argentina


    Poder de reputación
    6

    Predeterminado Re: The Great Wall (2016) 2160p 4k UHD HDR Dual Latino-Inglés [Subt. Esp] (Acción. Fantástico)


  6. #5
    Gran Miembro
    Avatar de strider_01
    Fecha de ingreso
    15 nov, 15
    Mensajes
    234
    Última Actividad
    Ayer @ 20:54
    Nacionalidad
    Chile

    Sexo
    Hombre

    Poder de reputación
    3

    Predeterminado Re: The Great Wall (2016) 2160p 4k UHD HDR Dual Latino-Inglés [Subt. Esp] (Acción. Fantástico)


  7. #6
    Gran Miembro
    Avatar de intruzocdr
    Fecha de ingreso
    26 sep, 12
    Mensajes
    355
    Última Actividad
    12/12/2017 @ 17:25
    Nacionalidad
    Argentina


    Poder de reputación
    6

    Predeterminado Re: The Great Wall (2016) 2160p 4k UHD HDR Dual Latino-Inglés [Subt. Esp] (Acción. Fantástico)

    GROSSOS

  8. #7
    Miembro Destacado
    Avatar de JCAvila
    Fecha de ingreso
    07 sep, 12
    Edad
    37
    Mensajes
    3,115
    Última Actividad
    hoy @ 20:38
    Nacionalidad
    Mexico


    Poder de reputación
    10

    Predeterminado Re: The Great Wall (2016) 2160p 4k UHD HDR Dual Latino-Inglés [Subt. Esp] (Acción. Fantástico)

    gracias!

  9. #8
    Miembro Destacado
    Avatar de SAAEDVI
    Fecha de ingreso
    09 nov, 14
    Mensajes
    411
    Última Actividad
    Ayer @ 21:17
    Nacionalidad
    Chile

    Sexo
    Hombre

    Poder de reputación
    4

    Predeterminado Re: The Great Wall (2016) 2160p 4k UHD HDR Dual Latino-Inglés [Subt. Esp] (Acción. Fantástico)

    ME GUSTA

  10. #9
    Gran Miembro
    Avatar de flujo
    Fecha de ingreso
    28 dic, 14
    Mensajes
    3,638
    Última Actividad
    hoy @ 17:20
    Nacionalidad
    Mexico

    Sexo
    Hombre

    Poder de reputación
    7

    Predeterminado Re: The Great Wall (2016) 2160p 4k UHD HDR Dual Latino-Inglés [Subt. Esp] (Acción. Fantástico)

    gracias

  11. #10
    Miembro Destacado
    Avatar de phillip64
    Fecha de ingreso
    29 ago, 12
    Mensajes
    276
    Última Actividad
    Ayer @ 15:10
    Nacionalidad
    Mexico


    Poder de reputación
    6

    Predeterminado Re: The Great Wall (2016) 2160p 4k UHD HDR Dual Latino-Inglés [Subt. Esp] (Acción. Fantástico)

    Muy buena cinta y en esta calidad esta genial , muchas gracias!

  12. #11
    Miembro Destacado
    Avatar de virus619
    Fecha de ingreso
    28 ago, 12
    Edad
    29
    Mensajes
    3,064
    Última Actividad
    hoy @ 19:39
    Nacionalidad
    Chile


    Poder de reputación
    10

    Predeterminado Re: The Great Wall (2016) 2160p 4k UHD HDR Dual Latino-Inglés [Subt. Esp] (Acción. Fantástico)


  13. #12
    Admin
    Avatar de Max
    Fecha de ingreso
    08 ago, 12
    Mensajes
    4,545
    Última Actividad
    hoy @ 20:43
    Nacionalidad
    Japan

    Sexo
    Hombre

    Poder de reputación
    223

    Predeterminado Re: The Great Wall (2016) 2160p 4k UHD HDR Dual Latino-Inglés [Subt. Esp] (Acción. Fantástico)

    Pero que hermosa Chinita caraj.....



    Uploaded.net, el filehost recomendado por Club-HD. Si piensan comprar una cuenta premium, pueden hacerlo desde el siguiente banner, de esta manera se ganarían el privilegio de que les resubamos cualquier aporte perdido de Club-HD!



  14. Los siguientes Usuarios dieron Me Gusta a Max por este Post:

    Brady (02/12/2017)

  15. #13
    Brady

    Avatar de Brady
    Fecha de ingreso
    01 jun, 16
    Edad
    21
    Mensajes
    1,240
    Última Actividad
    hoy @ 20:41
    Nacionalidad
    Mexico

    Sexo
    Hombre

    Poder de reputación
    27

    Predeterminado Re: The Great Wall (2016) 2160p 4k UHD HDR Dual Latino-Inglés [Subt. Esp] (Acción. Fantástico)

    Cita Iniciado por Max Ver mensaje
    Pero que hermosa Chinita caraj.....

    Jajaja por eso la puse max, por todos ustedes, tiene un papel muy importante en la pelicula, me gusto su papel y la pelicula muy buena
    Let's Go, Do Your Job.

    Uploaded.net, el filehost recomendado por Club-HD. Si piensan comprar una cuenta premium, pueden hacerlo desde el siguiente banner, de esta manera se ganarían el privilegio de que les resubamos cualquier aporte perdido de Club-HD!



  16. Los siguientes Usuarios dieron Me Gusta a Brady por este Post:

    Max (04/12/2017)

  17. #14
    Gran Miembro
    Avatar de josefo08
    Fecha de ingreso
    14 abr, 14
    Edad
    46
    Mensajes
    1,008
    Última Actividad
    hoy @ 15:58
    Nacionalidad
    Colombia

    Sexo
    Hombre

    Poder de reputación
    5

    Predeterminado Re: The Great Wall (2016) 2160p 4k UHD HDR Dual Latino-Inglés [Subt. Esp] (Acción. Fantástico)


  18. #15
    Gran Miembro
    Avatar de crischapman
    Fecha de ingreso
    12 abr, 17
    Mensajes
    229
    Última Actividad
    hoy @ 16:31
    Nacionalidad
    Chile

    Sexo
    Hombre

    Poder de reputación
    1

    Predeterminado Re: The Great Wall (2016) 2160p 4k UHD HDR Dual Latino-Inglés [Subt. Esp] (Acción. Fantástico)

    Gracias!

  19. #16
    Miembro Destacado
    Avatar de tsubasa100
    Fecha de ingreso
    04 sep, 12
    Mensajes
    2,077
    Última Actividad
    10/12/2017 @ 22:35
    Nacionalidad
    Chile


    Poder de reputación
    8

    Predeterminado Re: The Great Wall (2016) 2160p 4k UHD HDR Dual Latino-Inglés [Subt. Esp] (Acción. Fantástico)

    Gracias

  20. #17
    Miembro Destacado
    Avatar de PATRICIOG
    Fecha de ingreso
    29 may, 15
    Mensajes
    1,187
    Última Actividad
    hoy @ 13:16
    Nacionalidad
    Chile

    Sexo
    Hombre

    Poder de reputación
    4

    Predeterminado Re: The Great Wall (2016) 2160p 4k UHD HDR Dual Latino-Inglés [Subt. Esp] (Acción. Fantástico)

    Gracias, muy buen aporte en 4K

  21. #18
    Miembro VIP en Club-HD!
    Avatar de Bernal
    Fecha de ingreso
    28 ago, 12
    Edad
    34
    Mensajes
    985
    Última Actividad
    hoy @ 18:38
    Nacionalidad
    Peru

    Sexo
    Hombre

    Poder de reputación
    7

    Predeterminado Re: The Great Wall (2016) 2160p 4k UHD HDR Dual Latino-Inglés [Subt. Esp] (Acción. Fantástico)

    muy buena para verla en 4K por lo colorido de la pelicula
    http://gifsanimados.de/img-gifsanimados.de/k/kof/anyskof.gif

  22. #19
    Miembro Destacado
    Avatar de novatoxp
    Fecha de ingreso
    05 sep, 12
    Mensajes
    3,429
    Última Actividad
    Ayer @ 21:41
    Nacionalidad
    Peru


    Poder de reputación
    10

    Predeterminado Re: The Great Wall (2016) 2160p 4k UHD HDR Dual Latino-Inglés [Subt. Esp] (Acción. Fantástico)


  23. #20
    Gran Miembro
    Avatar de leuco88
    Fecha de ingreso
    22 ago, 15
    Mensajes
    542
    Última Actividad
    hoy @ 04:55
    Nacionalidad
    Mexico

    Sexo
    Hombre

    Poder de reputación
    3

    Predeterminado Re: The Great Wall (2016) 2160p 4k UHD HDR Dual Latino-Inglés [Subt. Esp] (Acción. Fantástico)

    gracias

  24. #21
    Gran Miembro
    Avatar de jramirez05
    Fecha de ingreso
    01 sep, 12
    Mensajes
    173
    Última Actividad
    hoy @ 19:35
    Nacionalidad
    Costa Rica


    Poder de reputación
    6

    Predeterminado Re: The Great Wall (2016) 2160p 4k UHD HDR Dual Latino-Inglés [Subt. Esp] (Acción. Fantástico)

    gracias

  25. #22
    Miembro
    Avatar de jucarperdor
    Fecha de ingreso
    14 nov, 15
    Mensajes
    55
    Última Actividad
    Ayer @ 21:58
    Nacionalidad
    Colombia

    Sexo
    Hombre

    Poder de reputación
    3

    Predeterminado Re: The Great Wall (2016) 2160p 4k UHD HDR Dual Latino-Inglés [Subt. Esp] (Acción. Fantástico)

    Gracias

  26. #23
    Gran Miembro
    Avatar de ValentinPbo
    Fecha de ingreso
    28 ago, 12
    Edad
    34
    Mensajes
    306
    Última Actividad
    hoy @ 17:57
    Nacionalidad
    Argentina


    Poder de reputación
    6

    Predeterminado Re: The Great Wall (2016) 2160p 4k UHD HDR Dual Latino-Inglés [Subt. Esp] (Acción. Fantástico)

    gracias

  27. #24
    Gran Miembro
    Avatar de stelgerw
    Fecha de ingreso
    17 jun, 16
    Mensajes
    133
    Última Actividad
    hoy @ 11:25
    Nacionalidad
    Peru

    Sexo
    Hombre

    Poder de reputación
    2

    Predeterminado Re: The Great Wall (2016) 2160p 4k UHD HDR Dual Latino-Inglés [Subt. Esp] (Acción. Fantástico)

    descargando

  28. #25
    Miembro Destacado
    Avatar de juniorgarabo
    Fecha de ingreso
    16 sep, 12
    Edad
    34
    Mensajes
    2,707
    Última Actividad
    13/12/2017 @ 07:47
    Nacionalidad
    Dominican Republic

    Sexo
    Hombre

    Poder de reputación
    23

    Predeterminado Re: The Great Wall (2016) 2160p 4k UHD HDR Dual Latino-Inglés [Subt. Esp] (Acción. Fantástico)


Información de tema

Usuarios viendo este tema

Actualmente hay 1 usuarios viendo este tema. (0 miembros y 1 visitantes)

Temas similares

  1. Respuestas: 39
    Último mensaje: Ayer, 19:22
  2. Respuestas: 266
    Último mensaje: 13/12/2017, 19:40
  3. Respuestas: 358
    Último mensaje: 10/12/2017, 22:48
  4. Respuestas: 177
    Último mensaje: 04/12/2017, 17:52
  5. Respuestas: 44
    Último mensaje: 19/10/2017, 19:55

Miembros que han leído este tema: 84

Marcadores

Permisos de publicación

  • No puedes crear nuevos temas
  • No puedes responder temas
  • No puedes subir archivos adjuntos
  • No puedes editar tus mensajes
  •