Página 1 de 2 12 ÚltimoÚltimo
Resultados 1 al 25 de 34

Tema: Lucy (2014) 2160p 4k UHD HDR Dual Latino-Inglés [Subt. Esp] (Acción. Ciencia Ficción)

  1. #1
    Brady

    Avatar de Brady
    Fecha de ingreso
    01 jun, 16
    Edad
    21
    Mensajes
    1,216
    Última Actividad
    hoy @ 07:49
    Nacionalidad
    Mexico

    Sexo
    Hombre

    Poder de reputación
    26

    Predeterminado Lucy (2014) 2160p 4k UHD HDR Dual Latino-Inglés [Subt. Esp] (Acción. Ciencia Ficción)






    Título Original: Lucy
    Año: 2014
    Duración: 89 min.
    País: France
    Director: Luc Besson
    Guion: Luc Besson
    Productora: Europa Corp / TF1 Films Production / Universal Pictures
    Género: Acción. Ciencia ficción. Thriller. Fantástico | Drogas. Crimen


    SINOPSIS
    Lucy, una joven obligada a ejercer de mula de una nueva y potente droga, adquiere de repente enormes poderes sobrenaturales cuando la bolsa de la droga se rompe y los narcóticos entran en contacto con su cuerpo. Entonces, su cerebro comienza a aumentar la capacidad de uso hasta poder ser utilizado al 100%, convirtiéndose en una máquina letal con habilidades extraordinarias.

    TRAILER


    Datos Técnicos
    Video:
    MPEGH HEVC / 2160p / High Profile 5.1 / 13.6 mbps

    Audio:
    Español Latino / DTS 5.1 / 768 kbps / 48kHz / Bluray 4k
    Inglés / TrueHD/Atmos 7.1 / 5206/8685 kbps / 48kHz / Bluray 4k
    Inglés / AC3 5.1 / 640 kbps / 48kHz / Bluray 4k

    Subs:
    Español Latino / SubRip / Bluray 4k
    Español Latino / Sup / Bluray 4k
    Español Latino Forzados / Sup / Bluray 4k
    Inglés / Sup / Bluray 4k


    Código:
    General
    Unique ID                                : 175255917212150461714900942345206619355 (0x83D90FD7F501533DBB6631569A2DDCDB)
    Format                                   : Matroska
    Format version                           : Version 4 / Version 2
    File size                                : 12.7 GiB
    Duration                                 : 1 h 29 min
    Overall bit rate mode                    : Variable
    Overall bit rate                         : 20.3 Mb/s
    Encoded date                             : UTC 2017-12-01 06:33:26
    Writing application                      : mkvmerge v9.9.0 ('Pick Up') 64bit
    Writing library                          : libebml v1.3.4 + libmatroska v1.4.5
    Uploader                                 : Brady
    Web                                      : www.club-hd.com
    
    Video
    ID                                       : 1
    Format                                   : HEVC
    Format/Info                              : High Efficiency Video Coding
    Format profile                           : Main 10@L5.1@High
    Codec ID                                 : V_MPEGH/ISO/HEVC
    Duration                                 : 1 h 29 min
    Bit rate                                 : 13.6 Mb/s
    Width                                    : 3 840 pixels
    Height                                   : 1 600 pixels
    Display aspect ratio                     : 2.40:1
    Frame rate mode                          : Constant
    Frame rate                               : 23.976 (24000/1001) FPS
    Color space                              : YUV
    Chroma subsampling                       : 4:2:0 (Type 2)
    Bit depth                                : 10 bits
    Bits/(Pixel*Frame)                       : 0.093
    Stream size                              : 8.52 GiB (67%)
    Writing library                          : x265 2.5+66-dae558b40d99:[Windows][GCC 6.2.1][64 bit] 10bit
    Encoding settings                        : cpuid=1173503 / frame-threads=4 / numa-pools=16 / wpp / no-pmode / no-pme / no-psnr / no-ssim / log-level=2 / input-csp=1 / input-res=3840x1600 / interlace=0 / total-frames=128721 / level-idc=51 / high-tier=1 / uhd-bd=0 / ref=4 / no-allow-non-conformance / repeat-headers / annexb / aud / hrd / info / hash=0 / no-temporal-layers / no-open-gop / min-keyint=1 / keyint=24 / bframes=4 / b-adapt=2 / b-pyramid / bframe-bias=0 / rc-lookahead=25 / lookahead-slices=4 / scenecut=40 / no-intra-refresh / ctu=64 / min-cu-size=8 / rect / no-amp / max-tu-size=32 / tu-inter-depth=1 / tu-intra-depth=1 / limit-tu=0 / rdoq-level=2 / dynamic-rd=0.00 / no-ssim-rd / signhide / no-tskip / nr-intra=0 / nr-inter=0 / no-constrained-intra / no-strong-intra-smoothing / max-merge=3 / limit-refs=3 / limit-modes / me=3 / subme=3 / merange=57 / temporal-mvp / weightp / no-weightb / no-analyze-src-pics / deblock=-3:-3 / no-sao / no-sao-non-deblock / rd=4 / no-early-skip / rskip / no-fast-intra / no-tskip-fast / no-cu-lossless / no-b-intra / no-splitrd-skip / rdpenalty=0 / psy-rd=2.00 / psy-rdoq=1.00 / no-rd-refine / analysis-reuse-mode=0 / no-lossless / cbqpoffs=0 / crqpoffs=0 / rc=crf / crf=17.0 / qcomp=0.60 / qpstep=4 / stats-write=0 / stats-read=0 / vbv-maxrate=160000 / vbv-bufsize=160000 / vbv-init=0.9 / crf-max=0.0 / crf-min=0.0 / ipratio=1.40 / pbratio=1.30 / aq-mode=1 / aq-strength=1.00 / cutree / zone-count=0 / no-strict-cbr / qg-size=32 / no-rc-grain / qpmax=69 / qpmin=0 / no-const-vbv / sar=1 / overscan=0 / videoformat=5 / range=0 / colorprim=9 / transfer=16 / colormatrix=9 / chromaloc=1 / chromaloc-top=2 / chromaloc-bottom=2 / display-window=0 / master-display=G(13250,34500)B(7500,3000)R(34000,16000)WP(15635,16450)L(10000000,50) / max-cll=1000,400 / min-luma=0 / max-luma=1023 / log2-max-poc-lsb=8 / vui-timing-info / vui-hrd-info / slices=1 / no-opt-qp-pps / no-opt-ref-list-length-pps / no-multi-pass-opt-rps / scenecut-bias=0.05 / no-opt-cu-delta-qp / no-aq-motion / hdr / hdr-opt / no-dhdr10-opt / analysis-reuse-level=5 / scale-factor=0 / refine-intra=0 / refine-inter=0 / refine-mv=0 / no-limit-sao / ctu-info=0 / no-lowpass-dct / refine-mv-type=0 / copy-pic=1
    Language                                 : English
    Default                                  : Yes
    Forced                                   : No
    Color range                              : Limited
    Color primaries                          : BT.2020
    Transfer characteristics                 : PQ
    Matrix coefficients                      : BT.2020 non-constant
    Mastering display color primaries        : R: x=0.680000 y=0.320000, G: x=0.265000 y=0.690000, B: x=0.150000 y=0.060000, White point: x=0.312700 y=0.329000
    Mastering display luminance              : min: 0.0050 cd/m2, max: 1000.0000 cd/m2
    Maximum Content Light Level              : 1000 cd/m2
    Maximum Frame-Average Light Level        : 400 cd/m2
    
    Audio #1
    ID                                       : 2
    Format                                   : DTS
    Format/Info                              : Digital Theater Systems
    Codec ID                                 : A_DTS
    Duration                                 : 1 h 29 min
    Bit rate mode                            : Constant
    Bit rate                                 : 768 kb/s
    Channel(s)                               : 6 channels
    Channel positions                        : Front: L C R, Side: L R, LFE
    Sampling rate                            : 48.0 kHz
    Frame rate                               : 93.750 FPS (512 SPF)
    Bit depth                                : 24 bits
    Compression mode                         : Lossy
    Stream size                              : 491 MiB (4%)
    Title                                    : Latino DTS 5.1 768 kbps Bluray 4k
    Language                                 : Latin
    Default                                  : Yes
    Forced                                   : No
    
    Audio #2
    ID                                       : 3
    Format                                   : TrueHD
    Format profile                           : TrueHD+Atmos / TrueHD
    Codec ID                                 : A_TRUEHD
    Duration                                 : 1 h 29 min
    Bit rate mode                            : Variable
    Bit rate                                 : 5 206 kb/s
    Maximum bit rate                         : 8 685 kb/s
    Channel(s)                               : Object Based / 8 channels
    Channel positions                        : Object Based / Front: L C R, Side: L R, Back: L R, LFE
    Sampling rate                            :  / 48.0 kHz
    Frame rate                               : 1 200.000 FPS (40 SPF)
    Compression mode                         : Lossless
    Stream size                              : 3.25 GiB (26%)
    Title                                    : Ingles TrueHD/Atmos 7.1 5206/8685 kbps Bluray 4k
    Language                                 : English
    Default                                  : No
    Forced                                   : No
    
    Audio #3
    ID                                       : 4
    Format                                   : AC-3
    Format/Info                              : Audio Coding 3
    Codec ID                                 : A_AC3
    Duration                                 : 1 h 29 min
    Bit rate mode                            : Constant
    Bit rate                                 : 640 kb/s
    Channel(s)                               : 6 channels
    Channel positions                        : Front: L C R, Side: L R, LFE
    Sampling rate                            : 48.0 kHz
    Frame rate                               : 31.250 FPS (1536 SPF)
    Bit depth                                : 16 bits
    Compression mode                         : Lossy
    Stream size                              : 410 MiB (3%)
    Title                                    : Ingles AC3 5.1 640 kbps Bluray 4k
    Language                                 : English
    Service kind                             : Complete Main
    Default                                  : No
    Forced                                   : No
    
    Text #1
    ID                                       : 5
    Format                                   : UTF-8
    Codec ID                                 : S_TEXT/UTF8
    Codec ID/Info                            : UTF-8 Plain Text
    Duration                                 : 1 h 20 min
    Bit rate                                 : 45 b/s
    Count of elements                        : 837
    Stream size                              : 26.6 KiB (0%)
    Title                                    : Latino
    Language                                 : Latin
    Default                                  : No
    Forced                                   : No
    
    Text #2
    ID                                       : 6
    Format                                   : PGS
    Muxing mode                              : zlib
    Codec ID                                 : S_HDMV/PGS
    Codec ID/Info                            : Picture based subtitle format used on BDs/HD-DVDs
    Duration                                 : 1 h 20 min
    Bit rate                                 : 7 609 b/s
    Count of elements                        : 1548
    Stream size                              : 4.39 MiB (0%)
    Title                                    : Latino
    Language                                 : Latin
    Default                                  : No
    Forced                                   : No
    
    Text #3
    ID                                       : 7
    Format                                   : PGS
    Muxing mode                              : zlib
    Codec ID                                 : S_HDMV/PGS
    Codec ID/Info                            : Picture based subtitle format used on BDs/HD-DVDs
    Duration                                 : 50 min 6 s
    Bit rate                                 : 860 b/s
    Count of elements                        : 120
    Stream size                              : 316 KiB (0%)
    Title                                    : Forzados
    Language                                 : Latin
    Default                                  : Yes
    Forced                                   : No
    
    Text #4
    ID                                       : 8
    Format                                   : PGS
    Muxing mode                              : zlib
    Codec ID                                 : S_HDMV/PGS
    Codec ID/Info                            : Picture based subtitle format used on BDs/HD-DVDs
    Duration                                 : 1 h 20 min
    Bit rate                                 : 9 580 b/s
    Count of elements                        : 1910
    Stream size                              : 5.53 MiB (0%)
    Title                                    : Ingles
    Language                                 : English
    Default                                  : No
    Forced                                   : No











    DESCARGA

    Links Intercambiables





    Compra tu Membresía VIP y apoya a Club-HD!

    Click Aquí para más información.

    ATENCIÓN! Finalmente tenemos TODO el material de Club-HD disponible por Mega, enlaces 100% activos y online hoy







    Compra tu Membresía VIP y apoya a Club-HD!

    Click Aquí para más información.

    ATENCIÓN! Finalmente tenemos TODO el material de Club-HD disponible por Mega, enlaces 100% activos y online hoy







    1. Primero, deben estár registrados, sino no habrá manera de que puedan ver los Enlaces.

    2. Una vez registrados, sólo deben dejar un simple comentario de Siete (7) letras/carácteres mínimo, o también un simple "Me gusta".

    Con eso ya podrán ver los links sin ningún problema.

    Nota: Usamos este sistema para proteger los links de Club-HD, y hasta la fecha funciona muy bien.





    1. Primero, deben estár registrados, sino no habrá manera de que puedan ver los Enlaces.

    2. Una vez registrados, sólo deben dejar un simple comentario de Siete (7) letras/carácteres mínimo, o también un simple "Me gusta".

    Con eso ya podrán ver los links sin ningún problema.

    Nota: Usamos este sistema para proteger los links de Club-HD, y hasta la fecha funciona muy bien.




    Código:
    www.club-hd.com
    Let's Go, Do Your Job.

    Uploaded.net, el filehost recomendado por Club-HD. Si piensan comprar una cuenta premium, pueden hacerlo desde el siguiente banner, de esta manera se ganarían el privilegio de que les resubamos cualquier aporte perdido de Club-HD!



  2. Los siguientes 8 Usuarios dieron Me Gusta a Brady por este Post:

    beaubinz (03/12/2017),cripp (01/12/2017),ERRE (09/12/2017),flujo (02/12/2017),frmr (01/12/2017),Leo (01/12/2017),Particulas (01/12/2017),Remr.Boy (01/12/2017)

  3. #2
    Miembro Destacado
    Avatar de cpola
    Fecha de ingreso
    25 feb, 14
    Edad
    49
    Mensajes
    1,739
    Última Actividad
    hoy @ 07:18
    Nacionalidad
    United States

    Sexo
    Hombre

    Poder de reputación
    5

    Predeterminado Re: Lucy (2014) 2160p 4k UHD HDR Dual Latino-Inglés [Subt. Esp] (Acción. Ciencia Ficción)

    Gracias

  4. #3
    Miembro Destacado
    Avatar de cripp
    Fecha de ingreso
    28 ago, 12
    Mensajes
    4,626
    Última Actividad
    Ayer @ 14:17
    Nacionalidad
    Costa Rica


    Poder de reputación
    12

    Predeterminado Re: Lucy (2014) 2160p 4k UHD HDR Dual Latino-Inglés [Subt. Esp] (Acción. Ciencia Ficción)

    Gracias por compartir

  5. #4
    Miembro Destacado
    Avatar de JCAvila
    Fecha de ingreso
    07 sep, 12
    Edad
    37
    Mensajes
    3,110
    Última Actividad
    hoy @ 00:59
    Nacionalidad
    Mexico


    Poder de reputación
    10

    Predeterminado Re: Lucy (2014) 2160p 4k UHD HDR Dual Latino-Inglés [Subt. Esp] (Acción. Ciencia Ficción)

    gracias!

  6. #5
    Gran Miembro
    Avatar de samuelabad
    Fecha de ingreso
    27 ago, 12
    Mensajes
    1,006
    Última Actividad
    Ayer @ 22:09
    Nacionalidad
    Dominican Republic


    Poder de reputación
    7

    Predeterminado Re: Lucy (2014) 2160p 4k UHD HDR Dual Latino-Inglés [Subt. Esp] (Acción. Ciencia Ficción)

    Gracias

  7. #6
    Miembro Destacado
    Avatar de virus619
    Fecha de ingreso
    28 ago, 12
    Edad
    29
    Mensajes
    3,058
    Última Actividad
    hoy @ 07:11
    Nacionalidad
    Chile


    Poder de reputación
    10

    Predeterminado Re: Lucy (2014) 2160p 4k UHD HDR Dual Latino-Inglés [Subt. Esp] (Acción. Ciencia Ficción)


  8. #7
    Gran Miembro
    Avatar de adfsm76
    Fecha de ingreso
    06 feb, 14
    Mensajes
    191
    Última Actividad
    Ayer @ 11:28
    Nacionalidad
    Argentina

    Sexo
    Hombre

    Poder de reputación
    4

    Predeterminado Re: Lucy (2014) 2160p 4k UHD HDR Dual Latino-Inglés [Subt. Esp] (Acción. Ciencia Ficción)

    graciassssssssssssssssssssss

  9. #8
    Gran Miembro
    Avatar de danielazzzo
    Fecha de ingreso
    21 nov, 12
    Edad
    36
    Mensajes
    281
    Última Actividad
    Ayer @ 16:06
    Nacionalidad
    Argentina

    Sexo
    Hombre

    Poder de reputación
    6

    Predeterminado Re: Lucy (2014) 2160p 4k UHD HDR Dual Latino-Inglés [Subt. Esp] (Acción. Ciencia Ficción)

    gracias!

  10. #9
    Miembro Junior Avatar de mario e
    Fecha de ingreso
    16 nov, 17
    Mensajes
    9
    Última Actividad
    hoy @ 02:04
    Nacionalidad
    Mexico

    Sexo
    Hombre

    Poder de reputación
    1

    Predeterminado Re: Lucy (2014) 2160p 4k UHD HDR Dual Latino-Inglés [Subt. Esp] (Acción. Ciencia Ficción)


  11. #10
    Miembro Destacado
    Avatar de Josiba
    Fecha de ingreso
    27 ago, 12
    Edad
    49
    Mensajes
    3,425
    Última Actividad
    hoy @ 07:43
    Nacionalidad
    Costa Rica


    Poder de reputación
    10

    Predeterminado Re: Lucy (2014) 2160p 4k UHD HDR Dual Latino-Inglés [Subt. Esp] (Acción. Ciencia Ficción)


  12. #11
    Miembro Destacado
    Avatar de Particulas
    Fecha de ingreso
    15 oct, 13
    Mensajes
    340
    Última Actividad
    Ayer @ 21:08
    Nacionalidad
    Mexico

    Sexo
    Hombre

    Poder de reputación
    5

    Predeterminado Re: Lucy (2014) 2160p 4k UHD HDR Dual Latino-Inglés [Subt. Esp] (Acción. Ciencia Ficción)

    Hola...

    Buen aporte...



    Gracias...

    Saludos.

  13. #12
    Miembro Destacado
    Avatar de obstinado
    Fecha de ingreso
    28 ago, 12
    Mensajes
    859
    Última Actividad
    Ayer @ 23:16
    Nacionalidad
    Mexico


    Poder de reputación
    6

    Predeterminado Re: Lucy (2014) 2160p 4k UHD HDR Dual Latino-Inglés [Subt. Esp] (Acción. Ciencia Ficción)


  14. #13
    Miembro Destacado
    Avatar de SAAEDVI
    Fecha de ingreso
    09 nov, 14
    Mensajes
    408
    Última Actividad
    hoy @ 01:18
    Nacionalidad
    Chile

    Sexo
    Hombre

    Poder de reputación
    4

    Predeterminado Re: Lucy (2014) 2160p 4k UHD HDR Dual Latino-Inglés [Subt. Esp] (Acción. Ciencia Ficción)

    me gusta

  15. #14
    Gran Miembro
    Avatar de leuco88
    Fecha de ingreso
    22 ago, 15
    Mensajes
    539
    Última Actividad
    09/12/2017 @ 05:30
    Nacionalidad
    Mexico

    Sexo
    Hombre

    Poder de reputación
    3

    Predeterminado Re: Lucy (2014) 2160p 4k UHD HDR Dual Latino-Inglés [Subt. Esp] (Acción. Ciencia Ficción)

    gracias

  16. #15
    Gran Miembro
    Avatar de pablozoladz
    Fecha de ingreso
    27 ago, 12
    Edad
    44
    Mensajes
    588
    Última Actividad
    Ayer @ 12:52
    Nacionalidad
    Argentina


    Poder de reputación
    6

    Predeterminado Re: Lucy (2014) 2160p 4k UHD HDR Dual Latino-Inglés [Subt. Esp] (Acción. Ciencia Ficción)


  17. #16
    Gran Miembro
    Avatar de flujo
    Fecha de ingreso
    28 dic, 14
    Mensajes
    3,627
    Última Actividad
    hoy @ 02:01
    Nacionalidad
    Mexico

    Sexo
    Hombre

    Poder de reputación
    7

    Predeterminado Re: Lucy (2014) 2160p 4k UHD HDR Dual Latino-Inglés [Subt. Esp] (Acción. Ciencia Ficción)

    gracias

  18. #17
    Miembro
    Avatar de Ferosito2129
    Fecha de ingreso
    17 jul, 16
    Mensajes
    62
    Última Actividad
    11/12/2017 @ 16:28
    Nacionalidad
    Mexico

    Sexo
    Hombre

    Poder de reputación
    2

    Predeterminado Re: Lucy (2014) 2160p 4k UHD HDR Dual Latino-Inglés [Subt. Esp] (Acción. Ciencia Ficción)

    aunque ya tengo esta pelicula en blu ray... quiero experimentar la calidad de 4K... gracias por el aporte de tan excelentisima pelicula!!!

  19. #18
    Gran Miembro
    Avatar de chapa72
    Fecha de ingreso
    28 ago, 12
    Edad
    45
    Mensajes
    361
    Última Actividad
    10/12/2017 @ 19:26
    Nacionalidad
    Argentina


    Poder de reputación
    6

    Predeterminado Re: Lucy (2014) 2160p 4k UHD HDR Dual Latino-Inglés [Subt. Esp] (Acción. Ciencia Ficción)

    gracias

  20. #19
    Gran Miembro
    Avatar de josefo08
    Fecha de ingreso
    14 abr, 14
    Edad
    46
    Mensajes
    1,007
    Última Actividad
    Ayer @ 22:04
    Nacionalidad
    Colombia

    Sexo
    Hombre

    Poder de reputación
    5

    Predeterminado Re: Lucy (2014) 2160p 4k UHD HDR Dual Latino-Inglés [Subt. Esp] (Acción. Ciencia Ficción)

    gracias

  21. #20
    Gran Miembro
    Avatar de crischapman
    Fecha de ingreso
    12 abr, 17
    Mensajes
    223
    Última Actividad
    hoy @ 07:45
    Nacionalidad
    Chile

    Sexo
    Hombre

    Poder de reputación
    1

    Predeterminado Re: Lucy (2014) 2160p 4k UHD HDR Dual Latino-Inglés [Subt. Esp] (Acción. Ciencia Ficción)

    Gracias!

  22. #21
    Miembro Destacado
    Avatar de novatoxp
    Fecha de ingreso
    05 sep, 12
    Mensajes
    3,417
    Última Actividad
    11/12/2017 @ 06:52
    Nacionalidad
    Peru


    Poder de reputación
    10

    Predeterminado Re: Lucy (2014) 2160p 4k UHD HDR Dual Latino-Inglés [Subt. Esp] (Acción. Ciencia Ficción)


  23. #22
    Miembro Destacado
    Avatar de ismar360
    Fecha de ingreso
    28 ago, 12
    Edad
    39
    Mensajes
    1,860
    Última Actividad
    Ayer @ 23:53
    Nacionalidad
    El Salvador


    Poder de reputación
    7

    Predeterminado Re: Lucy (2014) 2160p 4k UHD HDR Dual Latino-Inglés [Subt. Esp] (Acción. Ciencia Ficción)


  24. #23
    Miembro Destacado
    Avatar de patoch
    Fecha de ingreso
    27 ago, 12
    Mensajes
    1,742
    Última Actividad
    04/12/2017 @ 11:31
    Nacionalidad
    Chile


    Poder de reputación
    7

    Predeterminado Re: Lucy (2014) 2160p 4k UHD HDR Dual Latino-Inglés [Subt. Esp] (Acción. Ciencia Ficción)


  25. #24
    Miembro Destacado
    Avatar de juniorgarabo
    Fecha de ingreso
    16 sep, 12
    Edad
    34
    Mensajes
    2,707
    Última Actividad
    hoy @ 07:47
    Nacionalidad
    Dominican Republic

    Sexo
    Hombre

    Poder de reputación
    23

    Predeterminado Re: Lucy (2014) 2160p 4k UHD HDR Dual Latino-Inglés [Subt. Esp] (Acción. Ciencia Ficción)


  26. #25
    Gran Miembro
    Avatar de Bocanegra
    Fecha de ingreso
    10 nov, 13
    Mensajes
    240
    Última Actividad
    10/12/2017 @ 16:38
    Nacionalidad
    Mexico

    Sexo
    Hombre

    Poder de reputación
    5

    Predeterminado Re: Lucy (2014) 2160p 4k UHD HDR Dual Latino-Inglés [Subt. Esp] (Acción. Ciencia Ficción)

    Gracias.

Información de tema

Usuarios viendo este tema

Actualmente hay 1 usuarios viendo este tema. (0 miembros y 1 visitantes)

Temas similares

  1. Respuestas: 126
    Último mensaje: 10/12/2017, 13:39
  2. Respuestas: 90
    Último mensaje: 03/12/2017, 17:01
  3. Respuestas: 380
    Último mensaje: 02/12/2017, 21:11
  4. Respuestas: 371
    Último mensaje: 02/12/2017, 21:09
  5. Respuestas: 38
    Último mensaje: 02/12/2017, 15:55

Miembros que han leído este tema: 84

Marcadores

Permisos de publicación

  • No puedes crear nuevos temas
  • No puedes responder temas
  • No puedes subir archivos adjuntos
  • No puedes editar tus mensajes
  •