Resultados 1 al 23 de 23

Tema: Despicable Me (2010) 2160p 4k UHD HDR Dual Latino-Inglés [Subt. Esp] (Animación. Comedia)

  1. #1
    Let's Go

    Avatar de Brady
    Fecha de ingreso
    01 jun, 16
    Edad
    21
    Mensajes
    1,277
    Última Actividad
    hoy @ 09:31
    Nacionalidad
    Mexico

    Sexo
    Hombre

    Poder de reputación
    30

    Predeterminado Despicable Me (2010) 2160p 4k UHD HDR Dual Latino-Inglés [Subt. Esp] (Animación. Comedia)






    Título Original: Despicable Me
    Año: 2010
    Duración: 90 min.
    País: United States
    Director: Pierre Coffin, Chris Renaud
    Guion: Ken Daurio, Cinco Paul (Historia: Sergio Pablos)
    Productora: Universal Pictures / Illumination Entertainment
    Género: Animación. Comedia. Ciencia ficción. Infantil | Adopción. Familia. Crimen. Robos & Atracos. 3-D


    SINOPSIS
    Gru (voz de Steve Carell) es un hombre deplorable que planea el acto criminal más increíble de la Historia: robar la Luna. Incitado por una madre malvada (voz de Julie Andrews), sólo encontrará un obstáculo en su camino: tres niñas huérfanas a las que tendá que cuidar temporalmente.

    TRAILER


    Datos Técnicos
    Video:
    MPEGH HEVC / 2160p / High Profile 5.1 / 7579 kbps

    Audio:
    Español Latino / DTS 5.1/ 768 kbps / 48kHz / Bluray 4k
    Inglés / DTS-X/DTS-HD MA/Core 7.1/5.1 / 6678/6678/1509 kbps / 48kHz / Bluray 4k

    Subs:
    Español Latino / Sup / Bluray 4k
    Español Latino Forzados / Sup / Bluray 4k
    Inglés / Sup / Bluray 4k


    Código:
    General
    Unique ID                                : 205215856922295254069429579837311658426 (0x9A6322EA84D2AC4396CB33011D55A9BA)
    Format                                   : Matroska
    Format version                           : Version 4 / Version 2
    File size                                : 9.95 GiB
    Duration                                 : 1 h 34 min
    Overall bit rate                         : 15.0 Mb/s
    Encoded date                             : UTC 2017-11-28 08:44:33
    Writing application                      : mkvmerge v9.9.0 ('Pick Up') 64bit
    Writing library                          : libebml v1.3.4 + libmatroska v1.4.5
    Uploader                                 : Brady
    Web                                      : www.club-hd.com
    
    Video
    ID                                       : 1
    Format                                   : HEVC
    Format/Info                              : High Efficiency Video Coding
    Format profile                           : Main 10@L5.1@High
    Codec ID                                 : V_MPEGH/ISO/HEVC
    Duration                                 : 1 h 34 min
    Bit rate                                 : 7 579 kb/s
    Width                                    : 3 840 pixels
    Height                                   : 2 076 pixels
    Display aspect ratio                     : 1.85:1
    Frame rate mode                          : Constant
    Frame rate                               : 23.976 (24000/1001) FPS
    Color space                              : YUV
    Chroma subsampling                       : 4:2:0 (Type 2)
    Bit depth                                : 10 bits
    Bits/(Pixel*Frame)                       : 0.040
    Stream size                              : 5.01 GiB (50%)
    Writing library                          : x265 2.5+38-8a121d8cc134:[Windows][GCC 6.2.1][64 bit] 10bit
    Encoding settings                        : cpuid=1173503 / frame-threads=4 / numa-pools=20 / wpp / no-pmode / no-pme / no-psnr / no-ssim / log-level=2 / input-csp=1 / input-res=3840x2076 / interlace=0 / total-frames=136185 / level-idc=51 / high-tier=1 / uhd-bd=0 / ref=4 / no-allow-non-conformance / repeat-headers / annexb / aud / hrd / info / hash=0 / no-temporal-layers / no-open-gop / min-keyint=1 / keyint=24 / bframes=4 / b-adapt=2 / b-pyramid / bframe-bias=0 / rc-lookahead=25 / lookahead-slices=4 / scenecut=40 / no-intra-refresh / ctu=64 / min-cu-size=8 / rect / no-amp / max-tu-size=32 / tu-inter-depth=1 / tu-intra-depth=1 / limit-tu=0 / rdoq-level=2 / dynamic-rd=0.00 / no-ssim-rd / signhide / no-tskip / nr-intra=0 / nr-inter=0 / no-constrained-intra / no-strong-intra-smoothing / max-merge=3 / limit-refs=3 / limit-modes / me=3 / subme=3 / merange=57 / temporal-mvp / weightp / no-weightb / no-analyze-src-pics / deblock=-3:-3 / no-sao / no-sao-non-deblock / rd=4 / no-early-skip / rskip / no-fast-intra / no-tskip-fast / no-cu-lossless / no-b-intra / no-splitrd-skip / rdpenalty=0 / psy-rd=2.00 / psy-rdoq=1.00 / no-rd-refine / analysis-reuse-mode=0 / no-lossless / cbqpoffs=0 / crqpoffs=0 / rc=crf / crf=17.0 / qcomp=0.60 / qpstep=4 / stats-write=0 / stats-read=0 / vbv-maxrate=160000 / vbv-bufsize=160000 / vbv-init=0.9 / crf-max=0.0 / crf-min=0.0 / ipratio=1.40 / pbratio=1.30 / aq-mode=1 / aq-strength=1.00 / cutree / zone-count=0 / no-strict-cbr / qg-size=32 / no-rc-grain / qpmax=69 / qpmin=0 / no-const-vbv / sar=1 / overscan=0 / videoformat=5 / range=0 / colorprim=9 / transfer=16 / colormatrix=9 / chromaloc=1 / chromaloc-top=2 / chromaloc-bottom=2 / display-window=0 / master-display=G(13250,34500)B(7500,3000)R(34000,16000)WP(15635,16450)L(40000000,50) / max-cll=1000,644 / min-luma=0 / max-luma=1023 / log2-max-poc-lsb=8 / vui-timing-info / vui-hrd-info / slices=1 / opt-qp-pps / opt-ref-list-length-pps / no-multi-pass-opt-rps / scenecut-bias=0.05 / no-opt-cu-delta-qp / no-aq-motion / hdr / hdr-opt / no-dhdr10-opt / analysis-reuse-level=5 / scale-factor=0 / refine-intra=0 / refine-inter=0 / refine-mv=0 / no-limit-sao / ctu-info=0 / no-lowpass-dct
    Language                                 : English
    Default                                  : Yes
    Forced                                   : No
    Color range                              : Limited
    Color primaries                          : BT.2020
    Transfer characteristics                 : PQ
    Matrix coefficients                      : BT.2020 non-constant
    Mastering display color primaries        : R: x=0.680000 y=0.320000, G: x=0.265000 y=0.690000, B: x=0.150000 y=0.060000, White point: x=0.312700 y=0.329000
    Mastering display luminance              : min: 0.0050 cd/m2, max: 4000.0000 cd/m2
    Maximum Content Light Level              : 1000 cd/m2
    Maximum Frame-Average Light Level        : 644 cd/m2
    
    Audio #1
    ID                                       : 2
    Format                                   : DTS
    Format/Info                              : Digital Theater Systems
    Codec ID                                 : A_DTS
    Duration                                 : 1 h 34 min
    Bit rate mode                            : Constant
    Bit rate                                 : 768 kb/s
    Channel(s)                               : 6 channels
    Channel positions                        : Front: L C R, Side: L R, LFE
    Sampling rate                            : 48.0 kHz
    Frame rate                               : 93.750 FPS (512 SPF)
    Bit depth                                : 24 bits
    Compression mode                         : Lossy
    Stream size                              : 520 MiB (5%)
    Title                                    : Latino DTS 5.1 768 kbps Bluray 4k
    Language                                 : Latin
    Default                                  : Yes
    Forced                                   : No
    
    Audio #2
    ID                                       : 3
    Format                                   : DTS
    Format/Info                              : Digital Theater Systems
    Format profile                           : X / MA / Core
    Codec ID                                 : A_DTS
    Duration                                 : 1 h 34 min
    Bit rate mode                            : Variable / Variable / Constant
    Bit rate                                 : 6 678 kb/s / 6 678 kb/s / 1 509 kb/s
    Channel(s)                               : Object Based / 8 channels / 6 channels
    Channel positions                        : Object Based / Front: L C R, Side: L R, Back: L R, LFE / Front: L C R, Side: L R, LFE
    Sampling rate                            :  / 48.0 kHz / 48.0 kHz
    Frame rate                               : 93.750 FPS (512 SPF)
    Bit depth                                :  / 24 bits / 24 bits
    Compression mode                         :  / Lossless / Lossy
    Stream size                              : 4.42 GiB (44%)
    Title                                    : Ingles DTS X/DTS-HD MA/Core 7.1/5.1 6678/6678/ 1509 kbps Bluray 4k
    Language                                 : English
    Default                                  : No
    Forced                                   : No
    
    Text #1
    ID                                       : 4
    Format                                   : PGS
    Muxing mode                              : zlib
    Codec ID                                 : S_HDMV/PGS
    Codec ID/Info                            : Picture based subtitle format used on BDs/HD-DVDs
    Duration                                 : 1 h 30 min
    Bit rate                                 : 7 550 b/s
    Count of elements                        : 1920
    Stream size                              : 4.89 MiB (0%)
    Title                                    : Latino
    Language                                 : Latin
    Default                                  : No
    Forced                                   : No
    
    Text #2
    ID                                       : 5
    Format                                   : PGS
    Muxing mode                              : zlib
    Codec ID                                 : S_HDMV/PGS
    Codec ID/Info                            : Picture based subtitle format used on BDs/HD-DVDs
    Duration                                 : 1 h 22 min
    Bit rate                                 : 430 b/s
    Count of elements                        : 98
    Stream size                              : 261 KiB (0%)
    Title                                    : Forzados
    Language                                 : Latin
    Default                                  : Yes
    Forced                                   : No
    
    Text #3
    ID                                       : 6
    Format                                   : PGS
    Muxing mode                              : zlib
    Codec ID                                 : S_HDMV/PGS
    Codec ID/Info                            : Picture based subtitle format used on BDs/HD-DVDs
    Duration                                 : 1 h 30 min
    Bit rate                                 : 9 989 b/s
    Count of elements                        : 2378
    Stream size                              : 6.45 MiB (0%)
    Title                                    : Ingles
    Language                                 : English
    Default                                  : No
    Forced                                   : No











    DESCARGA

    Links Intercambiables





    Compra tu Membresía VIP y apoya a Club-HD!

    Click Aquí para más información.

    ATENCIÓN! Finalmente tenemos TODO el material de Club-HD disponible por Mega, enlaces 100% activos y online hoy







    Compra tu Membresía VIP y apoya a Club-HD!

    Click Aquí para más información.

    ATENCIÓN! Finalmente tenemos TODO el material de Club-HD disponible por Mega, enlaces 100% activos y online hoy







    1. Primero, deben estár registrados, sino no habrá manera de que puedan ver los Enlaces.

    2. Una vez registrados, sólo deben dejar un simple comentario de Siete (7) letras/carácteres mínimo, o también un simple "Me gusta".

    Con eso ya podrán ver los links sin ningún problema.

    Nota: Usamos este sistema para proteger los links de Club-HD, y hasta la fecha funciona muy bien.





    1. Primero, deben estár registrados, sino no habrá manera de que puedan ver los Enlaces.

    2. Una vez registrados, sólo deben dejar un simple comentario de Siete (7) letras/carácteres mínimo, o también un simple "Me gusta".

    Con eso ya podrán ver los links sin ningún problema.

    Nota: Usamos este sistema para proteger los links de Club-HD, y hasta la fecha funciona muy bien.




    Código:
    www.club-hd.com
    Let's Go, Do Your Job.

    Uploaded.net, el filehost recomendado por Club-HD. Si piensan comprar una cuenta premium, pueden hacerlo desde el siguiente banner, de esta manera se ganarían el privilegio de que les resubamos cualquier aporte perdido de Club-HD!



  2. Los siguientes 10 Usuarios dieron Me Gusta a Brady por este Post:

    beaubinz (29/11/2017),cripp (29/11/2017),flujo (29/11/2017),frmr (29/11/2017),goma22 (08/12/2017),leinad87 (29/11/2017),Leo (01/12/2017),mat-one (12/12/2017),Uziel (28/11/2017),zamwise (03/01/2018)

  3. #2
    Miembro Destacado
    Avatar de Josiba
    Fecha de ingreso
    27 ago, 12
    Edad
    49
    Mensajes
    3,539
    Última Actividad
    hoy @ 12:11
    Nacionalidad
    Costa Rica


    Poder de reputación
    10

    Predeterminado Re: Despicable Me (2010) 2160p 4k UHD HDR Dual Latino-Inglés [Subt. Esp] (Animación. Comedia)


  4. #3
    Miembro Destacado
    Avatar de cpola
    Fecha de ingreso
    25 feb, 14
    Edad
    49
    Mensajes
    1,795
    Última Actividad
    hoy @ 10:18
    Nacionalidad
    United States

    Sexo
    Hombre

    Poder de reputación
    5

    Predeterminado Re: Despicable Me (2010) 2160p 4k UHD HDR Dual Latino-Inglés [Subt. Esp] (Animación. Comedia)

    Gracias

  5. #4
    Miembro Destacado
    Avatar de SAAEDVI
    Fecha de ingreso
    09 nov, 14
    Mensajes
    476
    Última Actividad
    hoy @ 00:10
    Nacionalidad
    Chile

    Sexo
    Hombre

    Poder de reputación
    4

    Predeterminado Re: Despicable Me (2010) 2160p 4k UHD HDR Dual Latino-Inglés [Subt. Esp] (Animación. Comedia)

    ME GUSTA

  6. #5
    Miembro Destacado
    Avatar de virus619
    Fecha de ingreso
    28 ago, 12
    Edad
    29
    Mensajes
    3,120
    Última Actividad
    hoy @ 10:17
    Nacionalidad
    Chile


    Poder de reputación
    10

    Predeterminado Re: Despicable Me (2010) 2160p 4k UHD HDR Dual Latino-Inglés [Subt. Esp] (Animación. Comedia)


  7. #6
    Miembro
    Avatar de Andreslvl
    Fecha de ingreso
    14 nov, 15
    Edad
    25
    Mensajes
    98
    Última Actividad
    Ayer @ 13:59
    Nacionalidad
    Colombia

    Sexo
    Hombre

    Poder de reputación
    3

    Predeterminado Re: Despicable Me (2010) 2160p 4k UHD HDR Dual Latino-Inglés [Subt. Esp] (Animación. Comedia)


  8. #7
    Miembro Destacado
    Avatar de JCAvila
    Fecha de ingreso
    07 sep, 12
    Edad
    37
    Mensajes
    3,254
    Última Actividad
    hoy @ 06:19
    Nacionalidad
    Mexico


    Poder de reputación
    10

    Predeterminado Re: Despicable Me (2010) 2160p 4k UHD HDR Dual Latino-Inglés [Subt. Esp] (Animación. Comedia)

    gracias!

  9. #8
    Miembro Destacado
    Avatar de tsubasa100
    Fecha de ingreso
    04 sep, 12
    Mensajes
    2,127
    Última Actividad
    hoy @ 03:24
    Nacionalidad
    Chile


    Poder de reputación
    8

    Predeterminado Re: Despicable Me (2010) 2160p 4k UHD HDR Dual Latino-Inglés [Subt. Esp] (Animación. Comedia)

    gracias

  10. #9
    Miembro Destacado
    Avatar de juniorgarabo
    Fecha de ingreso
    16 sep, 12
    Edad
    34
    Mensajes
    2,780
    Última Actividad
    18/01/2018 @ 13:02
    Nacionalidad
    Dominican Republic

    Sexo
    Hombre

    Poder de reputación
    23

    Predeterminado Re: Despicable Me (2010) 2160p 4k UHD HDR Dual Latino-Inglés [Subt. Esp] (Animación. Comedia)


  11. #10
    Gran Miembro
    Avatar de flujo
    Fecha de ingreso
    28 dic, 14
    Mensajes
    3,840
    Última Actividad
    hoy @ 12:20
    Nacionalidad
    Mexico

    Sexo
    Hombre

    Poder de reputación
    7

    Predeterminado Re: Despicable Me (2010) 2160p 4k UHD HDR Dual Latino-Inglés [Subt. Esp] (Animación. Comedia)

    gracias

  12. #11
    Miembro Destacado
    Avatar de cripp
    Fecha de ingreso
    28 ago, 12
    Mensajes
    4,784
    Última Actividad
    Ayer @ 15:33
    Nacionalidad
    Costa Rica


    Poder de reputación
    12

    Predeterminado Re: Despicable Me (2010) 2160p 4k UHD HDR Dual Latino-Inglés [Subt. Esp] (Animación. Comedia)

    Gracias por compartir

  13. #12
    Miembro Destacado
    Avatar de muruagam
    Fecha de ingreso
    29 ago, 12
    Ubicación
    Buenos Aires
    Edad
    44
    Mensajes
    1,148
    Última Actividad
    hoy @ 11:26
    Nacionalidad
    Argentina

    Sexo
    Hombre

    Poder de reputación
    7

    Predeterminado Re: Despicable Me (2010) 2160p 4k UHD HDR Dual Latino-Inglés [Subt. Esp] (Animación. Comedia)


  14. #13
    Miembro Destacado
    Avatar de novatoxp
    Fecha de ingreso
    05 sep, 12
    Mensajes
    3,537
    Última Actividad
    hoy @ 06:26
    Nacionalidad
    Peru


    Poder de reputación
    10

    Predeterminado Re: Despicable Me (2010) 2160p 4k UHD HDR Dual Latino-Inglés [Subt. Esp] (Animación. Comedia)


  15. #14
    Miembro Destacado
    Avatar de samuelabad
    Fecha de ingreso
    27 ago, 12
    Mensajes
    1,037
    Última Actividad
    Ayer @ 23:42
    Nacionalidad
    Dominican Republic


    Poder de reputación
    7

    Predeterminado Re: Despicable Me (2010) 2160p 4k UHD HDR Dual Latino-Inglés [Subt. Esp] (Animación. Comedia)

    Gracias

  16. #15
    Miembro Destacado
    Avatar de ismar360
    Fecha de ingreso
    28 ago, 12
    Edad
    39
    Mensajes
    1,915
    Última Actividad
    18/01/2018 @ 11:16
    Nacionalidad
    El Salvador


    Poder de reputación
    7

    Predeterminado Re: Despicable Me (2010) 2160p 4k UHD HDR Dual Latino-Inglés [Subt. Esp] (Animación. Comedia)


  17. #16
    Gran Miembro
    Avatar de eabadia
    Fecha de ingreso
    27 ago, 12
    Mensajes
    957
    Última Actividad
    16/01/2018 @ 22:08
    Nacionalidad
    Mexico

    Sexo
    Hombre

    Poder de reputación
    6

    Predeterminado Re: Despicable Me (2010) 2160p 4k UHD HDR Dual Latino-Inglés [Subt. Esp] (Animación. Comedia)

    bajando

  18. #17
    Gran Miembro
    Avatar de iori_2700
    Fecha de ingreso
    26 abr, 15
    Mensajes
    136
    Última Actividad
    Ayer @ 14:02
    Nacionalidad
    Mexico

    Sexo
    Hombre

    Poder de reputación
    3

    Predeterminado Re: Despicable Me (2010) 2160p 4k UHD HDR Dual Latino-Inglés [Subt. Esp] (Animación. Comedia)


  19. #18
    Gran Miembro
    Avatar de fewac
    Fecha de ingreso
    26 abr, 13
    Mensajes
    735
    Última Actividad
    hoy @ 00:54
    Nacionalidad
    Mexico

    Sexo
    Hombre

    Poder de reputación
    5

    Predeterminado Re: Despicable Me (2010) 2160p 4k UHD HDR Dual Latino-Inglés [Subt. Esp] (Animación. Comedia)

    Gracias!!!

  20. #19
    Miembro Destacado
    Avatar de mx777
    Fecha de ingreso
    19 sep, 12
    Edad
    30
    Mensajes
    986
    Última Actividad
    15/01/2018 @ 12:03
    Nacionalidad
    Chile

    Sexo
    Hombre

    Poder de reputación
    6

    Predeterminado Re: Despicable Me (2010) 2160p 4k UHD HDR Dual Latino-Inglés [Subt. Esp] (Animación. Comedia)


  21. #20
    Colaborador de Club-HD
    Avatar de argentum
    Fecha de ingreso
    22 sep, 17
    Mensajes
    91
    Última Actividad
    hoy @ 11:35
    Nacionalidad
    Mexico

    Sexo
    Hombre

    Poder de reputación
    1

    Predeterminado Re: Despicable Me (2010) 2160p 4k UHD HDR Dual Latino-Inglés [Subt. Esp] (Animación. Comedia)

    gracias

  22. #21
    Miembro Destacado
    Avatar de jcvallenato
    Fecha de ingreso
    19 abr, 15
    Edad
    36
    Mensajes
    127
    Última Actividad
    Ayer @ 21:53
    Nacionalidad
    Mexico

    Sexo
    Hombre

    Poder de reputación
    3

    Predeterminado Re: Despicable Me (2010) 2160p 4k UHD HDR Dual Latino-Inglés [Subt. Esp] (Animación. Comedia)

    Muchas gracias

  23. #22
    Miembro Destacado
    Avatar de Tony Stark
    Fecha de ingreso
    28 ago, 12
    Mensajes
    1,349
    Última Actividad
    18/01/2018 @ 00:22
    Nacionalidad
    Mexico

    Sexo
    Hombre

    Poder de reputación
    7

    Predeterminado Re: Despicable Me (2010) 2160p 4k UHD HDR Dual Latino-Inglés [Subt. Esp] (Animación. Comedia)


  24. #23
    Gran Miembro
    Avatar de banana64
    Fecha de ingreso
    31 may, 16
    Mensajes
    118
    Última Actividad
    14/01/2018 @ 03:36
    Nacionalidad
    Mexico

    Sexo
    Hombre

    Poder de reputación
    2

    Predeterminado Re: Despicable Me (2010) 2160p 4k UHD HDR Dual Latino-Inglés [Subt. Esp] (Animación. Comedia)

    gracias

Información de tema

Usuarios viendo este tema

Actualmente hay 1 usuarios viendo este tema. (0 miembros y 1 visitantes)

Temas similares

  1. Respuestas: 242
    Último mensaje: 17/01/2018, 13:49
  2. Respuestas: 412
    Último mensaje: 09/01/2018, 14:07
  3. Respuestas: 163
    Último mensaje: 09/01/2018, 10:40
  4. Respuestas: 828
    Último mensaje: 08/12/2017, 11:36
  5. Respuestas: 255
    Último mensaje: 11/08/2017, 21:45

Miembros que han leído este tema: 71

Marcadores

Permisos de publicación

  • No puedes crear nuevos temas
  • No puedes responder temas
  • No puedes subir archivos adjuntos
  • No puedes editar tus mensajes
  •