PDA

Ver la versión completa : Deadpool (2016) 2160p 4K UHD Dual Audio Latino-Inglés [Subt. Esp] (Acción. Fantástico. Comedia)



HemoAr
27/05/2016, 11:24
https://2.bp.blogspot.com/-y8uHhcGHM44/V0hSj7WU02I/AAAAAAAAC-s/Ia3KY7Djlpc0NzwW8__E2kXkzXaWtdQvQCLcB/s1600/DP00L.jpg



http://4.bp.blogspot.com/-qTnXQflzrwY/VoVuX1Vd9wI/AAAAAAAAABQ/6ncvKZHZcNU/s1600/ficha%2Bt%25C3%25A9c.png

Título original: Deadpool
Año: 2016
Duración: 108 min.
País: Estados Unidos
Director: Tim Miller
Reparto: Ryan Reynolds, Morena Baccarin, Ed Skrein, Gina Carano, T.J. Miller, Rachel Sheen, Brianna Hildebrand, Paul Lazenby, Sean Quan, Ben Wilkinson, Naika Toussaint, Olesia Shewchuk, Kyle Cassie, Style Dayne, Fabiola Colmenero, Stan Lee
Productora: Marvel Enterprises / Marvel Studios / 20th Century Fox
Género: Acción. Fantástico. Comedia | Superhéroes. Marvel Comics. Cómic. Spin-off

Sinopsis: Basado en el anti-héroe menos convencional de la Marvel, Deadpool narra el origen de un ex-operativo de la fuerzas especiales llamado Wade Wilson, reconvertido a mercenario, y que tras ser sometido a un cruel experimento adquiere poderes de curación rápida, adoptando Wade entonces el alter ego de Deadpool. Armado con sus nuevas habilidades y un oscuro y retorcido sentido del humor, Deadpool intentará dar caza al hombre que casi destruye su vida.




Puntuación en IMDb (http://www.imdb.com/title/tt1431045/?ref_=nv_sr_1)


http://2.bp.blogspot.com/-1Pff5E5GTgk/VoVuYGO2-LI/AAAAAAAAABc/UYIZqG2UFuI/s1600/trailer.png

https://www.youtube.com/watch?v=RbnfaZtMGZ8


http://4.bp.blogspot.com/-xKBma1_QIng/VoVuXAWbMtI/AAAAAAAAABA/t_3OE6C1xFE/s1600/captura.png

https://4.bp.blogspot.com/-phCsNWnc17I/V0hSpEHe1lI/AAAAAAAAC-0/vJ1QgO1c7Pk8eQIhYQvSWdu5bIMzXmmxgCLcB/s1600/DP01.jpg

https://2.bp.blogspot.com/-xJx4pCmIReQ/V0hSoZ7JYRI/AAAAAAAAC-w/ISwmHRXeonUhRDtIK82AdsrLKpv4qoKVQCLcB/s1600/DP02.jpg

https://3.bp.blogspot.com/-QaQibM2pq5M/V0hSqdWlspI/AAAAAAAAC-4/GZ8TXDJ2NJ4-qv0C4xV0g5RYNpBjWkH8gCLcB/s1600/DP03.jpg

https://1.bp.blogspot.com/-9RN3-tLtGP0/V0hSs7s86EI/AAAAAAAAC-8/MipB9hMOxX8V8w3RJ0GHBtmo4-esMUuSACLcB/s1600/DP04.jpg

https://3.bp.blogspot.com/-69Y9vR2ZQK4/V0hSti4NrpI/AAAAAAAAC_A/KX_ydwK7psktttmJ-TtWviMoKxoqAGFvACLcB/s1600/DP05.jpg



http://4.bp.blogspot.com/-ZJdJJ0sdVtI/VoVuX_CwhlI/AAAAAAAAABY/Xk7xERDvoxQ/s1600/mediainfo.png

General

Format : Matroska
Format version : Version 4 / Version 2
File size : 34.4 GiB
Duration : 1h 48mn
Overall bit rate mode : Variable
Overall bit rate : 45.6 Mbps
Movie name : Deadpool (2016) 2160p 4K UHD Dual Audio Latino-Inglés
Encoded date : UTC 2016-05-24 23:56:47
Writing application : mkvmerge v8.3.0 ('Over the Horizon') 64bit
Writing library : libebml v1.3.1 + libmatroska v1.4.2

Video
ID : 1
ID : 1
Format : AVC
Format/Info : Advanced Video Codec
Format profile : Baseline@L1.3
Format settings, CABAC : No
Format settings, ReFrames : 1 frame
Format settings, GOP : M=1, N=12
Codec ID : V_MPEG4/ISO/AVC
Duration : 1h 48mn
Width : 3 840 pixels
Height : 2 160 pixels
Display aspect ratio : 16:9
Frame rate mode : Constant
Frame rate : 23.976 fps
Color space : YUV
Chroma subsampling : 4:2:0
Bit depth : 8 bits
Scan type : Progressive
Title : Deadpool (2016) 2160p 4K UHD Dual Audio Latino-Inglés
Language : English
Default : Yes
Forced : No

Audio #1
ID : 2
Format : AC-3
Format/Info : Audio Coding 3
Mode extension : CM (complete main)
Format settings, Endianness : Big
Codec ID : A_AC3
Duration : 1h 48mn
Bit rate mode : Constant
Bit rate : 448 Kbps
Channel(s) : 6 channels
Channel positions : Front: L C R, Side: L R, LFE
Sampling rate : 48.0 KHz
Bit depth : 16 bits
Compression mode : Lossy
Stream size : 346 MiB (1%)
Title : AC3 5.1 Bluray
Language : Spanish
Default : Yes
Forced : No

Audio #2
ID : 3
Format : DTS
Format/Info : Digital Theater Systems
Format profile : MA / Core
Mode : 16
Format settings, Endianness : Big
Codec ID : A_DTS
Duration : 1h 48mn
Bit rate mode : Variable
Bit rate : Unknown / 1 509 Kbps
Channel(s) : 8 channels / 6 channels
Channel positions : Front: L C R, Side: L R, Back: L R, LFE / Front: L C R, Side: L R, LFE
Sampling rate : 48.0 KHz
Bit depth : 24 bits
Compression mode : Lossless / Lossy
Title : DTS-HDMA 7.1
Language : English
Default : No
Forced : No

Audio #3
ID : 4
Format : AC-3
Format/Info : Audio Coding 3
Mode extension : CM (complete main)
Format settings, Endianness : Big
Codec ID : A_AC3
Duration : 1h 48mn
Bit rate mode : Constant
Bit rate : 448 Kbps
Channel(s) : 6 channels
Channel positions : Front: L C R, Side: L R, LFE
Sampling rate : 48.0 KHz
Bit depth : 16 bits
Compression mode : Lossy
Stream size : 346 MiB (1%)
Title : AC3
Language : English
Default : No
Forced : No

Text #1
ID : 5
Format : UTF-8
Codec ID : S_TEXT/UTF8
Codec ID/Info : UTF-8 Plain Text
Title : Subtitulos_Forzados
Language : Spanish
Default : Yes
Forced : No

Text #2
ID : 6
Format : UTF-8
Codec ID : S_TEXT/UTF8
Codec ID/Info : UTF-8 Plain Text
Title : Subtitulos_Completos
Language : Spanish
Default : No
Forced : No




http://2.bp.blogspot.com/-d9wws3AK4xA/VoVuXpmbndI/AAAAAAAAABM/Cn89p0ialZk/s1600/descarga.png



Contraseña para extraer: www.club-hd.com


Nota: Los archivos .rev no es necesario descargar al menos que algun .rar este dañado o que este eliminado


http://2.bp.blogspot.com/-Raqd-2TRS84/VoVv8SWyIJI/AAAAAAAAAB8/NmyWEUdRUEc/s1600/Mega.jpg

**Hidden Content: Check the thread to see hidden data.**


https://2.bp.blogspot.com/-0prslAHZca8/VxApO3HzUyI/AAAAAAAACI0/lFOGr6l4EDEH1XjbM9uDlwnDx9SNkBTOACLcB/s1600/1FICHIER.jpg

**Hidden Content: Check the thread to see hidden data.**


http://3.bp.blogspot.com/-pfVg2-b18qs/VoVwmM8A3iI/AAAAAAAAACE/EjIStFsEEg0/s1600/up.jpg

**Hidden Content: Check the thread to see hidden data.**


https://3.bp.blogspot.com/-xaIdwjEg1Pc/VwBO6kMvpAI/AAAAAAAAyTk/PGPFjl6ULQ8JpP8R_saJ9Qvl4b2UwcKdw/s1600/BIGFILE.png
**Hidden Content: Check the thread to see hidden data.**

Loco
27/05/2016, 11:38
4K :sprloc:

Llego la Hora de probar esta version en mi nueva TV PLANA 5k mosking

http://i.imgur.com/7sdC44l.jpg


Gracias por el aporte

potencia01
27/05/2016, 11:49
uma cura muy buena

Revolver
27/05/2016, 12:20
:apls::apls::apls:

jaimepb
27/05/2016, 13:16
gracias

godofmusic
27/05/2016, 13:41
buenisimo grande club hd .gracias por otra peli en 4k!

freestyle
27/05/2016, 13:45
Excelente Gracias!!!!

lakytu
27/05/2016, 13:54
grax

oscarteach
27/05/2016, 14:03
gracias

Prem1er
27/05/2016, 14:25
gracias!!

Josiba
27/05/2016, 16:00
Desc_g_

JCAvila
27/05/2016, 16:54
gracias!

gadagaca
27/05/2016, 17:24
Excelente!, agradecido....

nestor85
27/05/2016, 17:45
Desc_g_

novatoxp
27/05/2016, 17:49
Desc_g_ Deadpool

opv_2011
27/05/2016, 18:32
buena pelicula, gracias

mjrc
27/05/2016, 19:14
gracias

Bernal
27/05/2016, 19:25
:dplgar::apls:d4nce2 mi tv de 60" extrañaba los 4K gracias :D

Frank
27/05/2016, 20:14
gracias

JavDF1
27/05/2016, 20:24
:apls:

sosalexfame
27/05/2016, 21:43
gracias

amtmdq
28/05/2016, 00:05
gracias

TigreToroLoaeza
28/05/2016, 00:52
Desc_g_

NE-MI-AS
28/05/2016, 03:07
gracias

reynaldo
28/05/2016, 03:26
GRACIAS

chicogym42
28/05/2016, 05:41
gracias

sondrako
28/05/2016, 11:09
thankz

chumpaso
28/05/2016, 11:53
4k a full aguante el club-hd

jmst1011
28/05/2016, 12:52
gracias

ERRE
28/05/2016, 16:16
Gracias...thank_you2

protoo
28/05/2016, 17:44
gracias ...

flujo
28/05/2016, 17:56
gracias

gomezx
28/05/2016, 19:52
hola atodos gracia por la peli

odoc
28/05/2016, 21:02
mil gracias a sacarle jugo a ese 4k

carlitro71
28/05/2016, 23:26
muchas gracias

darthritchie
28/05/2016, 23:43
muchas gracias

fernando4555
28/05/2016, 23:45
gracias

RESIDENT_EVIL
28/05/2016, 23:47
Desc_g_Desc_g_Pl4yb0y:apls::dplgar::crcjd:

btito
29/05/2016, 13:52
gracias

fire9194
29/05/2016, 14:47
a ver q tal se ve en mi tele

Cyberhack
29/05/2016, 16:14
fantástico, gracias por este aporte.

bytechno
30/05/2016, 01:50
tnks for this movie

bossman
30/05/2016, 07:32
gracias

cripp
30/05/2016, 13:14
Gracias por compartir

coyote81
30/05/2016, 18:47
muchisimas gracias a pribar!!

Kuzen
31/05/2016, 13:33
Desc_g_ y probando, gracias

Kuzen
31/05/2016, 13:47
Gracias

ozkar
31/05/2016, 19:43
gracias por el aporte

tonipita
31/05/2016, 23:41
me gustan los aportes

42323520
01/06/2016, 02:05
gracias

MegavetH
01/06/2016, 08:13
Gracias

Bocanegra
01/06/2016, 08:54
Gracias.

kloid
01/06/2016, 14:32
Desc_g_

kloid
01/06/2016, 14:34
muchas gracias men:bsrs:

Artu
01/06/2016, 20:31
Desc_g_

el guicho
01/06/2016, 21:56
gracias

pablin2006
02/06/2016, 06:50
Gracias por tan buen aporte :apls:

Alekz
03/06/2016, 13:37
A ver qué tal, gracias!

comizzo_22
03/06/2016, 14:00
de 10

patoch
03/06/2016, 19:30
Desc_g_Desc_g_

Antonyo_153
03/06/2016, 23:08
GRACIAS

patricio2008
04/06/2016, 01:32
GRACIAS

zenend
05/06/2016, 18:15
gracias

luischanel
07/06/2016, 20:20
Desc_g_

staredgar87
10/06/2016, 01:02
:)

xizor1234
10/06/2016, 21:58
https://2.bp.blogspot.com/-y8uHhcGHM44/V0hSj7WU02I/AAAAAAAAC-s/Ia3KY7Djlpc0NzwW8__E2kXkzXaWtdQvQCLcB/s1600/DP00L.jpg



http://4.bp.blogspot.com/-qTnXQflzrwY/VoVuX1Vd9wI/AAAAAAAAABQ/6ncvKZHZcNU/s1600/ficha%2Bt%25C3%25A9c.png

Título original: Deadpool
Año: 2016
Duración: 108 min.
País: Estados Unidos
Director: Tim Miller
Reparto: Ryan Reynolds, Morena Baccarin, Ed Skrein, Gina Carano, T.J. Miller, Rachel Sheen, Brianna Hildebrand, Paul Lazenby, Sean Quan, Ben Wilkinson, Naika Toussaint, Olesia Shewchuk, Kyle Cassie, Style Dayne, Fabiola Colmenero, Stan Lee
Productora: Marvel Enterprises / Marvel Studios / 20th Century Fox
Género: Acción. Fantástico. Comedia | Superhéroes. Marvel Comics. Cómic. Spin-off

Sinopsis: Basado en el anti-héroe menos convencional de la Marvel, Deadpool narra el origen de un ex-operativo de la fuerzas especiales llamado Wade Wilson, reconvertido a mercenario, y que tras ser sometido a un cruel experimento adquiere poderes de curación rápida, adoptando Wade entonces el alter ego de Deadpool. Armado con sus nuevas habilidades y un oscuro y retorcido sentido del humor, Deadpool intentará dar caza al hombre que casi destruye su vida.




Puntuación en IMDb (http://www.imdb.com/title/tt1431045/?ref_=nv_sr_1)


http://2.bp.blogspot.com/-1Pff5E5GTgk/VoVuYGO2-LI/AAAAAAAAABc/UYIZqG2UFuI/s1600/trailer.png

https://www.youtube.com/watch?v=RbnfaZtMGZ8


http://4.bp.blogspot.com/-xKBma1_QIng/VoVuXAWbMtI/AAAAAAAAABA/t_3OE6C1xFE/s1600/captura.png

https://4.bp.blogspot.com/-phCsNWnc17I/V0hSpEHe1lI/AAAAAAAAC-0/vJ1QgO1c7Pk8eQIhYQvSWdu5bIMzXmmxgCLcB/s1600/DP01.jpg

https://2.bp.blogspot.com/-xJx4pCmIReQ/V0hSoZ7JYRI/AAAAAAAAC-w/ISwmHRXeonUhRDtIK82AdsrLKpv4qoKVQCLcB/s1600/DP02.jpg

https://3.bp.blogspot.com/-QaQibM2pq5M/V0hSqdWlspI/AAAAAAAAC-4/GZ8TXDJ2NJ4-qv0C4xV0g5RYNpBjWkH8gCLcB/s1600/DP03.jpg

https://1.bp.blogspot.com/-9RN3-tLtGP0/V0hSs7s86EI/AAAAAAAAC-8/MipB9hMOxX8V8w3RJ0GHBtmo4-esMUuSACLcB/s1600/DP04.jpg

https://3.bp.blogspot.com/-69Y9vR2ZQK4/V0hSti4NrpI/AAAAAAAAC_A/KX_ydwK7psktttmJ-TtWviMoKxoqAGFvACLcB/s1600/DP05.jpg



http://4.bp.blogspot.com/-ZJdJJ0sdVtI/VoVuX_CwhlI/AAAAAAAAABY/Xk7xERDvoxQ/s1600/mediainfo.png

General

Format : Matroska
Format version : Version 4 / Version 2
File size : 34.4 GiB
Duration : 1h 48mn
Overall bit rate mode : Variable
Overall bit rate : 45.6 Mbps
Movie name : Deadpool (2016) 2160p 4K UHD Dual Audio Latino-Inglés
Encoded date : UTC 2016-05-24 23:56:47
Writing application : mkvmerge v8.3.0 ('Over the Horizon') 64bit
Writing library : libebml v1.3.1 + libmatroska v1.4.2

Video
ID : 1
ID : 1
Format : AVC
Format/Info : Advanced Video Codec
Format profile : Baseline@L1.3
Format settings, CABAC : No
Format settings, ReFrames : 1 frame
Format settings, GOP : M=1, N=12
Codec ID : V_MPEG4/ISO/AVC
Duration : 1h 48mn
Width : 3 840 pixels
Height : 2 160 pixels
Display aspect ratio : 16:9
Frame rate mode : Constant
Frame rate : 23.976 fps
Color space : YUV
Chroma subsampling : 4:2:0
Bit depth : 8 bits
Scan type : Progressive
Title : Deadpool (2016) 2160p 4K UHD Dual Audio Latino-Inglés
Language : English
Default : Yes
Forced : No

Audio #1
ID : 2
Format : AC-3
Format/Info : Audio Coding 3
Mode extension : CM (complete main)
Format settings, Endianness : Big
Codec ID : A_AC3
Duration : 1h 48mn
Bit rate mode : Constant
Bit rate : 448 Kbps
Channel(s) : 6 channels
Channel positions : Front: L C R, Side: L R, LFE
Sampling rate : 48.0 KHz
Bit depth : 16 bits
Compression mode : Lossy
Stream size : 346 MiB (1%)
Title : AC3 5.1 Bluray
Language : Spanish
Default : Yes
Forced : No

Audio #2
ID : 3
Format : DTS
Format/Info : Digital Theater Systems
Format profile : MA / Core
Mode : 16
Format settings, Endianness : Big
Codec ID : A_DTS
Duration : 1h 48mn
Bit rate mode : Variable
Bit rate : Unknown / 1 509 Kbps
Channel(s) : 8 channels / 6 channels
Channel positions : Front: L C R, Side: L R, Back: L R, LFE / Front: L C R, Side: L R, LFE
Sampling rate : 48.0 KHz
Bit depth : 24 bits
Compression mode : Lossless / Lossy
Title : DTS-HDMA 7.1
Language : English
Default : No
Forced : No

Audio #3
ID : 4
Format : AC-3
Format/Info : Audio Coding 3
Mode extension : CM (complete main)
Format settings, Endianness : Big
Codec ID : A_AC3
Duration : 1h 48mn
Bit rate mode : Constant
Bit rate : 448 Kbps
Channel(s) : 6 channels
Channel positions : Front: L C R, Side: L R, LFE
Sampling rate : 48.0 KHz
Bit depth : 16 bits
Compression mode : Lossy
Stream size : 346 MiB (1%)
Title : AC3
Language : English
Default : No
Forced : No

Text #1
ID : 5
Format : UTF-8
Codec ID : S_TEXT/UTF8
Codec ID/Info : UTF-8 Plain Text
Title : Subtitulos_Forzados
Language : Spanish
Default : Yes
Forced : No

Text #2
ID : 6
Format : UTF-8
Codec ID : S_TEXT/UTF8
Codec ID/Info : UTF-8 Plain Text
Title : Subtitulos_Completos
Language : Spanish
Default : No
Forced : No




http://2.bp.blogspot.com/-d9wws3AK4xA/VoVuXpmbndI/AAAAAAAAABM/Cn89p0ialZk/s1600/descarga.png



Contraseña para extraer: www.club-hd.com


Nota: Los archivos .rev no es necesario descargar al menos que algun .rar este dañado o que este eliminado


http://2.bp.blogspot.com/-Raqd-2TRS84/VoVv8SWyIJI/AAAAAAAAAB8/NmyWEUdRUEc/s1600/Mega.jpg

***Hidden content cannot be quoted.***


https://2.bp.blogspot.com/-0prslAHZca8/VxApO3HzUyI/AAAAAAAACI0/lFOGr6l4EDEH1XjbM9uDlwnDx9SNkBTOACLcB/s1600/1FICHIER.jpg

***Hidden content cannot be quoted.***


http://3.bp.blogspot.com/-pfVg2-b18qs/VoVwmM8A3iI/AAAAAAAAACE/EjIStFsEEg0/s1600/up.jpg

***Hidden content cannot be quoted.***


https://3.bp.blogspot.com/-xaIdwjEg1Pc/VwBO6kMvpAI/AAAAAAAAyTk/PGPFjl6ULQ8JpP8R_saJ9Qvl4b2UwcKdw/s1600/BIGFILE.png
***Hidden content cannot be quoted.***


excelente pelicula

xizor1234
10/06/2016, 21:59
excelente

oldsnake27.1
10/06/2016, 22:57
Desc_g_

jorg_1981
11/06/2016, 11:55
hola... muchas gracias!!!

CharlieMarket
11/06/2016, 21:23
muchas gracias

dinamed
13/06/2016, 22:23
Agradecido

bastione
15/06/2016, 23:57
Desc_g_

thewookie
17/06/2016, 08:49
gracias

micecu
17/06/2016, 23:21
gracias

mikekrooz
17/06/2016, 23:53
Desc_g_ :apls:

cartxof
18/06/2016, 09:21
muchas gracias

gebc182
18/06/2016, 18:59
http://uploaded.net/file/u3b6419j/CHD-M374LL1C4-F-P-U-N.part01.rar
http://uploaded.net/file/1ggw2c23/CHD-M374LL1C4-F-P-U-N.part02.rar
http://uploaded.net/file/sfiz1d83/CHD-M374LL1C4-F-P-U-N.part03.rar
http://uploaded.net/file/gjblkb7l/CHD-M374LL1C4-F-P-U-N.part04.rar
http://uploaded.net/file/qtbt8k6g/CHD-M374LL1C4-F-P-U-N.part05.rar
http://uploaded.net/file/nte8mzpg/CHD-M374LL1C4-F-P-U-N.part06.rar
http://uploaded.net/file/tdxujegx/CHD-M374LL1C4-F-P-U-N.part07.rar
http://uploaded.net/file/zxfidryg/CHD-M374LL1C4-F-P-U-N.part08.rar
http://uploaded.net/file/436nwzsi/CHD-M374LL1C4-F-P-U-N.part09.rar
http://uploaded.net/file/u6ghnnwy/CHD-M374LL1C4-F-P-U-N.part10.rar
http://uploaded.net/file/amorf84t/CHD-M374LL1C4-F-P-U-N.sfv

dacarcitu
19/06/2016, 18:45
Espero pueda bajarla! Gracias!

ejlm
22/06/2016, 15:22
gracias

Piggy
23/06/2016, 22:04
Desc_g_

Battoussai77
23/06/2016, 22:24
Mil gracias por el aporte.

back.castle2
23/06/2016, 23:07
Desc_g_

totis_19
24/06/2016, 02:48
Descargando

paul78
24/06/2016, 16:57
Muy buena pelicula

Chamako
27/06/2016, 12:48
Desc_g_

acba
02/07/2016, 11:18
Gracias

sseeeba
03/07/2016, 02:48
Gracias

tochulo
07/07/2016, 00:01
Desc_g_

pablitensen
10/07/2016, 18:24
exelente

carloselon
10/07/2016, 22:52
https://2.bp.blogspot.com/-y8uHhcGHM44/V0hSj7WU02I/AAAAAAAAC-s/Ia3KY7Djlpc0NzwW8__E2kXkzXaWtdQvQCLcB/s1600/DP00L.jpg



http://4.bp.blogspot.com/-qTnXQflzrwY/VoVuX1Vd9wI/AAAAAAAAABQ/6ncvKZHZcNU/s1600/ficha%2Bt%25C3%25A9c.png

Título original: Deadpool
Año: 2016
Duración: 108 min.
País: Estados Unidos
Director: Tim Miller
Reparto: Ryan Reynolds, Morena Baccarin, Ed Skrein, Gina Carano, T.J. Miller, Rachel Sheen, Brianna Hildebrand, Paul Lazenby, Sean Quan, Ben Wilkinson, Naika Toussaint, Olesia Shewchuk, Kyle Cassie, Style Dayne, Fabiola Colmenero, Stan Lee
Productora: Marvel Enterprises / Marvel Studios / 20th Century Fox
Género: Acción. Fantástico. Comedia | Superhéroes. Marvel Comics. Cómic. Spin-off

Sinopsis: Basado en el anti-héroe menos convencional de la Marvel, Deadpool narra el origen de un ex-operativo de la fuerzas especiales llamado Wade Wilson, reconvertido a mercenario, y que tras ser sometido a un cruel experimento adquiere poderes de curación rápida, adoptando Wade entonces el alter ego de Deadpool. Armado con sus nuevas habilidades y un oscuro y retorcido sentido del humor, Deadpool intentará dar caza al hombre que casi destruye su vida.




Puntuación en IMDb (http://www.imdb.com/title/tt1431045/?ref_=nv_sr_1)


http://2.bp.blogspot.com/-1Pff5E5GTgk/VoVuYGO2-LI/AAAAAAAAABc/UYIZqG2UFuI/s1600/trailer.png

https://www.youtube.com/watch?v=RbnfaZtMGZ8


http://4.bp.blogspot.com/-xKBma1_QIng/VoVuXAWbMtI/AAAAAAAAABA/t_3OE6C1xFE/s1600/captura.png

https://4.bp.blogspot.com/-phCsNWnc17I/V0hSpEHe1lI/AAAAAAAAC-0/vJ1QgO1c7Pk8eQIhYQvSWdu5bIMzXmmxgCLcB/s1600/DP01.jpg

https://2.bp.blogspot.com/-xJx4pCmIReQ/V0hSoZ7JYRI/AAAAAAAAC-w/ISwmHRXeonUhRDtIK82AdsrLKpv4qoKVQCLcB/s1600/DP02.jpg

https://3.bp.blogspot.com/-QaQibM2pq5M/V0hSqdWlspI/AAAAAAAAC-4/GZ8TXDJ2NJ4-qv0C4xV0g5RYNpBjWkH8gCLcB/s1600/DP03.jpg

https://1.bp.blogspot.com/-9RN3-tLtGP0/V0hSs7s86EI/AAAAAAAAC-8/MipB9hMOxX8V8w3RJ0GHBtmo4-esMUuSACLcB/s1600/DP04.jpg

https://3.bp.blogspot.com/-69Y9vR2ZQK4/V0hSti4NrpI/AAAAAAAAC_A/KX_ydwK7psktttmJ-TtWviMoKxoqAGFvACLcB/s1600/DP05.jpg



http://4.bp.blogspot.com/-ZJdJJ0sdVtI/VoVuX_CwhlI/AAAAAAAAABY/Xk7xERDvoxQ/s1600/mediainfo.png

General

Format : Matroska
Format version : Version 4 / Version 2
File size : 34.4 GiB
Duration : 1h 48mn
Overall bit rate mode : Variable
Overall bit rate : 45.6 Mbps
Movie name : Deadpool (2016) 2160p 4K UHD Dual Audio Latino-Inglés
Encoded date : UTC 2016-05-24 23:56:47
Writing application : mkvmerge v8.3.0 ('Over the Horizon') 64bit
Writing library : libebml v1.3.1 + libmatroska v1.4.2

Video
ID : 1
ID : 1
Format : AVC
Format/Info : Advanced Video Codec
Format profile : Baseline@L1.3
Format settings, CABAC : No
Format settings, ReFrames : 1 frame
Format settings, GOP : M=1, N=12
Codec ID : V_MPEG4/ISO/AVC
Duration : 1h 48mn
Width : 3 840 pixels
Height : 2 160 pixels
Display aspect ratio : 16:9
Frame rate mode : Constant
Frame rate : 23.976 fps
Color space : YUV
Chroma subsampling : 4:2:0
Bit depth : 8 bits
Scan type : Progressive
Title : Deadpool (2016) 2160p 4K UHD Dual Audio Latino-Inglés
Language : English
Default : Yes
Forced : No

Audio #1
ID : 2
Format : AC-3
Format/Info : Audio Coding 3
Mode extension : CM (complete main)
Format settings, Endianness : Big
Codec ID : A_AC3
Duration : 1h 48mn
Bit rate mode : Constant
Bit rate : 448 Kbps
Channel(s) : 6 channels
Channel positions : Front: L C R, Side: L R, LFE
Sampling rate : 48.0 KHz
Bit depth : 16 bits
Compression mode : Lossy
Stream size : 346 MiB (1%)
Title : AC3 5.1 Bluray
Language : Spanish
Default : Yes
Forced : No

Audio #2
ID : 3
Format : DTS
Format/Info : Digital Theater Systems
Format profile : MA / Core
Mode : 16
Format settings, Endianness : Big
Codec ID : A_DTS
Duration : 1h 48mn
Bit rate mode : Variable
Bit rate : Unknown / 1 509 Kbps
Channel(s) : 8 channels / 6 channels
Channel positions : Front: L C R, Side: L R, Back: L R, LFE / Front: L C R, Side: L R, LFE
Sampling rate : 48.0 KHz
Bit depth : 24 bits
Compression mode : Lossless / Lossy
Title : DTS-HDMA 7.1
Language : English
Default : No
Forced : No

Audio #3
ID : 4
Format : AC-3
Format/Info : Audio Coding 3
Mode extension : CM (complete main)
Format settings, Endianness : Big
Codec ID : A_AC3
Duration : 1h 48mn
Bit rate mode : Constant
Bit rate : 448 Kbps
Channel(s) : 6 channels
Channel positions : Front: L C R, Side: L R, LFE
Sampling rate : 48.0 KHz
Bit depth : 16 bits
Compression mode : Lossy
Stream size : 346 MiB (1%)
Title : AC3
Language : English
Default : No
Forced : No

Text #1
ID : 5
Format : UTF-8
Codec ID : S_TEXT/UTF8
Codec ID/Info : UTF-8 Plain Text
Title : Subtitulos_Forzados
Language : Spanish
Default : Yes
Forced : No

Text #2
ID : 6
Format : UTF-8
Codec ID : S_TEXT/UTF8
Codec ID/Info : UTF-8 Plain Text
Title : Subtitulos_Completos
Language : Spanish
Default : No
Forced : No




http://2.bp.blogspot.com/-d9wws3AK4xA/VoVuXpmbndI/AAAAAAAAABM/Cn89p0ialZk/s1600/descarga.png



Contraseña para extraer: www.club-hd.com


Nota: Los archivos .rev no es necesario descargar al menos que algun .rar este dañado o que este eliminado


http://2.bp.blogspot.com/-Raqd-2TRS84/VoVv8SWyIJI/AAAAAAAAAB8/NmyWEUdRUEc/s1600/Mega.jpg

***Hidden content cannot be quoted.***


https://2.bp.blogspot.com/-0prslAHZca8/VxApO3HzUyI/AAAAAAAACI0/lFOGr6l4EDEH1XjbM9uDlwnDx9SNkBTOACLcB/s1600/1FICHIER.jpg

***Hidden content cannot be quoted.***


http://3.bp.blogspot.com/-pfVg2-b18qs/VoVwmM8A3iI/AAAAAAAAACE/EjIStFsEEg0/s1600/up.jpg

***Hidden content cannot be quoted.***


https://3.bp.blogspot.com/-xaIdwjEg1Pc/VwBO6kMvpAI/AAAAAAAAyTk/PGPFjl6ULQ8JpP8R_saJ9Qvl4b2UwcKdw/s1600/BIGFILE.png
***Hidden content cannot be quoted.***


gracias

santudo
11/07/2016, 15:45
Desc_g_

amendoza
14/07/2016, 15:48
gracias

hugo1981
14/07/2016, 19:43
Desc_g_

javiermam
15/07/2016, 01:19
muy bueno

sandrups
15/07/2016, 17:36
bajando ya veamo que tal

neto6911
18/07/2016, 01:45
Desc_g_

iluke01
20/07/2016, 18:48
gracias

roberto74cba
22/07/2016, 13:08
gracias!!!

profejraul
22/07/2016, 21:47
a calar en 4k

profejraul
22/07/2016, 21:53
gracias

que pets

siriusram2
30/07/2016, 13:56
gracias 4k

yeisson
02/08/2016, 12:29
Descargando !!!!!!

ariellando
02/08/2016, 19:39
buen aporte 4k

joelmax18
02/08/2016, 22:42
gracias

ZATANAS
03/08/2016, 21:45
muy buena resolucuin

hanamichi
11/08/2016, 14:42
gracias...

gioccarlos
15/08/2016, 15:09
Una de las mejores películas de Marvel! Gracias por el aporte.

WILDO
19/08/2016, 08:45
Desc_g_

gabrielx5
21/08/2016, 10:48
gracias

senor666
22/08/2016, 05:01
Gran Película GRACIAS

AdrianDJ
02/09/2016, 01:15
Desc_g_

armyfan
05/09/2016, 23:34
Gracias club.

Kristian
08/09/2016, 14:26
GRACIAS

orcoxx
14/09/2016, 22:36
muy buena página ... navegando

murrea2005
25/09/2016, 19:38
Desc_g_

gibrannr1
29/09/2016, 01:53
Desc_g_

St@rLord
01/10/2016, 11:16
Desc_g_ wow HemoAr gracias

giorgio
07/10/2016, 18:19
gracias

claudio
11/10/2016, 08:18
gracias

orega80
12/10/2016, 07:49
thanks

martin30
21/10/2016, 05:43
Gracias.
Saludos.

F.J
22/10/2016, 22:03
Desc_g_

latinboy
29/10/2016, 19:03
gracias por el poderoso pote pero aun funkan los links?

roddan1973
05/11/2016, 19:43
gracias....................

supergroove69
09/11/2016, 13:11
Desc_g_

rmaremoto
10/11/2016, 00:27
gran aporte gracias

HardPablo
10/11/2016, 02:02
Gracias

alesgdl
18/11/2016, 09:23
muchas gracias

cpola
19/11/2016, 12:12
Gracias

carlosselkoala
20/11/2016, 20:45
Desc_g_

luis06
22/11/2016, 16:19
:apls::apls:

Vicure
23/11/2016, 10:15
Desc_g_

felink
26/11/2016, 09:11
vamos a probar

saintcoco
25/12/2016, 11:24
gracias

ruaral
05/01/2017, 09:32
Desc_g_

fallo
02/02/2017, 17:29
muchas gracias

franciscodae23
02/02/2017, 18:08
gracias gracias

alejavega
06/02/2017, 22:27
Muchas gracias

pelicu
07/02/2017, 15:13
gracias...

panish
20/02/2017, 01:46
:dplgar:bye

Robert Florit
23/02/2017, 18:42
Gracias por la peli

freddy313
24/02/2017, 18:04
Muy buena pelicula

DoomsDay Elite
28/02/2017, 13:46
otra que le llevo ganas

troyano2010
02/03/2017, 09:22
Desc_g_

rafaelt718
08/03/2017, 03:11
gracias

ARMAN777
19/03/2017, 23:02
Desc_g_

nelsedu
24/03/2017, 23:23
Desc_g_

droonsdragons
28/03/2017, 15:12
gracias

GIGIO
30/03/2017, 14:04
gracias..

oscar27jimenez
14/04/2017, 02:52
gracias

TheEth1c
15/04/2017, 19:42
Grandioso Aporte Pl4yb0y

goma22
08/05/2017, 16:16
Desc_g_

ibu73
15/05/2017, 19:30
graciass

leyton
22/05/2017, 16:05
Desc_g_

cloudining7
31/05/2017, 20:36
gracias

dementor
05/06/2017, 19:56
gracias

Brady
09/06/2017, 00:10
graacias amigoo

junierpana507
23/06/2017, 02:03
http://www.club-hd.com/images/smilies/DESCARGANDO.png

jriquelme
29/06/2017, 10:07
Desc_g_

fuenric
04/07/2017, 15:57
Gracias!!!

ewolf73
09/07/2017, 21:46
gran aporte
gracias

ewolf73
17/07/2017, 22:10
muchas gracias

:pulgar2:

tsubasa100
29/07/2017, 14:43
gracias

vajamex
01/08/2017, 01:15
Desc_g_

bluewall
01/08/2017, 02:08
Gran aporte

josefo08
07/08/2017, 12:18
Pl4yb0y

ataxio
15/08/2017, 15:49
Muchas Gracias!!! :dplgar: Desc_g_

fercatpo95
18/08/2017, 02:51
excelente hora de probarlo en mi tv 4k

AlbertoLG
19/08/2017, 14:51
Tengo una tv 4k y, todavía, no la he probado con esa resolución, ojalá pueda con ésta, que es una película bastante buena.

warrior87
20/08/2017, 12:10
gracias

joselogx
28/08/2017, 21:45
gracias

arsehe
31/08/2017, 12:21
bajando

jairfon28
05/09/2017, 04:48
Gracias.

feramil
17/09/2017, 00:32
gracias¡¡

zamwise
22/09/2017, 18:56
Gracias por el aporte!!

apachin
01/10/2017, 17:13
esta chida

beaubinz
12/10/2017, 22:41
Desc_g_

xikoh99
14/10/2017, 21:43
Desc_g_

Gyman
14/10/2017, 23:34
Graciasssssssssssssssssssssssssssssssss

Frafel
30/10/2017, 17:38
Desc_g_

dalofe
01/11/2017, 17:25
gracias.. solo comento para desbloquear links.. despues descargo jeje

Jamesgoz
03/11/2017, 17:54
gracias

darusando
07/11/2017, 15:56
GRACIAS

CHESTERNEITOR
20/11/2017, 02:48
gracias

Limberth1
20/11/2017, 09:34
Gracias

samuelabad
22/11/2017, 20:02
Gracias

rcruanes
24/11/2017, 05:11
downloading

mat-one
27/11/2017, 21:32
gracias

Gicardi
07/01/2018, 17:04
exelente pelicula

mmartelli
13/01/2018, 23:56
gracias

wiios
20/01/2018, 03:47
Graciasss

mcasti61
27/01/2018, 13:22
dicen que es para reir

silnarvaez
09/05/2018, 21:05
gracias

davisariel
12/05/2018, 02:15
bajando bajando

frankarter
12/05/2018, 22:01
Desc_g_