PDA

Ver la versión completa : The Commuter (2018) 2160p 4k UHD HDR Dual Latino-Inglés [Subt. Esp] (Thriller. Trenes)



Brady
20/04/2018, 01:25
https://1.bp.blogspot.com/-3iCI0R1VMLE/WtliRW2NWJI/AAAAAAAADIc/WsfFIXVTedEOhMmEdOMrv5EV6Wm9HEI4ACLcBGAs/s1600/Commuter.jpg


https://1.bp.blogspot.com/-s6PuW6TawPg/WaxnWg-5pPI/AAAAAAAAALs/OMh7vMt1tkAKRT8kSue_zxgG64KJ0Ss1ACLcBGAs/s1600/ficha%2Btecnica%2Bclub.jpg



Título Original: The Commuter
Año: 2018
Duración: 105 min.
País: https://www.filmaffinity.com/imgs/countries/US.jpg United States
Director: Jaume Collet-Serra
Guion: Byron Willinger, Philip de Blasi
Reparto: Liam Neeson, Patrick Wilson, Vera Farmiga, Sam Neill, Jonathan Banks, Elizabeth McGovern, Dean-Charles Chapman, Clara Lago, Florence Pugh, Letitia Wright, Shazad Latif, Killian Scott, Andy Nyman, Roland Møller, Colin McFarlane, Dilyana Bouklieva, Adam Nagaitis, Kingsley Ben-Adir, Kobna Holdbrook-Smith
Productora: Coproducción Estados Unidos-Reino Unido; Lionsgate / StudioCanal / Nvizage / Ombra Films
Género: Thriller | Trenes/Metros


SINOPSIS
Durante su trayecto habitual de vuelta a casa en tren, un hombre de negocios felizmente casado comienza a hablar con una misteriosa pasajera. Pronto el hombre se verá envuelto en una conspiración criminal que amenaza con poner en peligro tanto su vida como la de sus seres más cercanos.

TRAILER

https://www.youtube.com/watch?v=y3Qv1_NV7Sg

Datos Técnicos
Video:
MPEGH HEVC / 2160p / High Profile 5.1 / 14.4 mbps

Audio:
Español Latino / AC3 5.1/ 448 kbps / 48kHz / Bluray 4k
Inglés / TrueHD/Atmos 7.1 / 4211/7737 kbps / 48kHz / Bluray 4k
Inglés / AC3 5.1 / 640 kbps / 48kHz / Bluray 4k

Subs:
Español Latino / SubRip / Bluray 4k
Español Latino / Sup / Bluray 4k
Inglés / Sup / Bluray 4k


General
Unique ID : 79456900451276339209321055003409208869 (0x3BC6D7A6A823B40F3A166A4BDA155625)
Format : Matroska
Format version : Version 4 / Version 2
File size : 14.5 GiB
Duration : 1 h 44 min
Overall bit rate mode : Variable
Overall bit rate : 19.8 Mb/s
Encoded date : UTC 2018-04-19 11:16:29
Writing application : mkvmerge v20.0.0 ('I Am The Sun') 64-bit
Writing library : libebml v1.3.5 + libmatroska v1.4.8
Uploader : Brady
Web : www.club-hd.com

Video
ID : 1
Format : HEVC
Format/Info : High Efficiency Video Coding
Format profile : Main 10@L5.1@High
Codec ID : V_MPEGH/ISO/HEVC
Duration : 1 h 44 min
Bit rate : 14.4 Mb/s
Width : 3 840 pixels
Height : 1 608 pixels
Display aspect ratio : 2.40:1
Frame rate mode : Constant
Frame rate : 23.976 (24000/1001) FPS
Color space : YUV
Chroma subsampling : 4:2:0 (Type 2)
Bit depth : 10 bits
Bits/(Pixel*Frame) : 0.097
Stream size : 10.6 GiB (73%)
Writing library : x265 2.7+336-07defe235cde:[Windows][GCC 6.3.0][64 bit] 10bit
Encoding settings : cpuid=1111039 / frame-threads=5 / numa-pools=36 / wpp / no-pmode / no-pme / no-psnr / no-ssim / log-level=2 / input-csp=1 / input-res=3840x1608 / interlace=0 / total-frames=150937 / level-idc=51 / high-tier=1 / uhd-bd=0 / ref=4 / no-allow-non-conformance / repeat-headers / annexb / aud / hrd / info / hash=0 / no-temporal-layers / no-open-gop / min-keyint=1 / keyint=24 / gop-lookahead=0 / bframes=4 / b-adapt=2 / b-pyramid / bframe-bias=0 / rc-lookahead=25 / lookahead-slices=4 / scenecut=40 / radl=0 / no-intra-refresh / ctu=64 / min-cu-size=8 / rect / no-amp / max-tu-size=32 / tu-inter-depth=1 / tu-intra-depth=1 / limit-tu=0 / rdoq-level=2 / dynamic-rd=0.00 / no-ssim-rd / signhide / no-tskip / nr-intra=0 / nr-inter=0 / no-constrained-intra / no-strong-intra-smoothing / max-merge=3 / limit-refs=3 / limit-modes / me=3 / subme=3 / merange=57 / temporal-mvp / weightp / no-weightb / no-analyze-src-pics / deblock=-3:-3 / no-sao / no-sao-non-deblock / rd=4 / no-early-skip / rskip / no-fast-intra / no-tskip-fast / no-cu-lossless / no-b-intra / no-splitrd-skip / rdpenalty=0 / psy-rd=2.00 / psy-rdoq=1.00 / no-rd-refine / no-lossless / cbqpoffs=0 / crqpoffs=0 / rc=crf / crf=17.0 / qcomp=0.60 / qpstep=4 / stats-write=0 / stats-read=0 / vbv-maxrate=160000 / vbv-bufsize=160000 / vbv-init=0.9 / crf-max=0.0 / crf-min=0.0 / ipratio=1.40 / pbratio=1.30 / aq-mode=1 / aq-strength=1.00 / cutree / zone-count=0 / no-strict-cbr / qg-size=32 / no-rc-grain / qpmax=69 / qpmin=0 / no-const-vbv / sar=1 / overscan=0 / videoformat=5 / range=0 / colorprim=9 / transfer=16 / colormatrix=9 / chromaloc=1 / chromaloc-top=2 / chromaloc-bottom=2 / display-window=0 / master-display=G(13250,34500)B(7500,3000)R(34000,16000)WP(15635,16450)L(10000000,50) / max-cll=1000,530 / min-luma=0 / max-luma=1023 / log2-max-poc-lsb=8 / vui-timing-info / vui-hrd-info / slices=1 / no-opt-qp-pps / no-opt-ref-list-length-pps / no-multi-pass-opt-rps / scenecut-bias=0.05 / no-opt-cu-delta-qp / no-aq-motion / hdr / hdr-opt / no-dhdr10-opt / no-idr-recovery-sei / analysis-reuse-level=5 / scale-factor=0 / refine-intra=0 / refine-inter=0 / refine-mv=0 / no-limit-sao / ctu-info=0 / no-lowpass-dct / refine-mv-type=0 / copy-pic=1 / max-ausize-factor=1.0 / no-dynamic-refine / no-single-sei
Language : English
Default : Yes
Forced : No
Color range : Limited
Color primaries : BT.2020
Transfer characteristics : PQ
Matrix coefficients : BT.2020 non-constant
Mastering display color primaries : Display P3
Mastering display luminance : min: 0.0050 cd/m2, max: 1000 cd/m2
Maximum Content Light Level : 1000 cd/m2
Maximum Frame-Average Light Level : 530 cd/m2

Audio #1
ID : 2
Format : AC-3
Format/Info : Audio Coding 3
Codec ID : A_AC3
Duration : 1 h 44 min
Bit rate mode : Constant
Bit rate : 448 kb/s
Channel(s) : 6 channels
Channel positions : Front: L C R, Side: L R, LFE
Sampling rate : 48.0 kHz
Frame rate : 31.250 FPS (1536 SPF)
Bit depth : 16 bits
Compression mode : Lossy
Stream size : 336 MiB (2%)
Title : Latino AC3 5.1 448 kbps Bluray 4k
Language : Latin
Service kind : Complete Main
Default : Yes
Forced : No

Audio #2
ID : 3
Format : TrueHD
Format profile : TrueHD+Atmos / TrueHD
Codec ID : A_TRUEHD
Duration : 1 h 44 min
Bit rate mode : Variable
Bit rate : 4 211 kb/s
Maximum bit rate : 7 737 kb/s
Channel(s) : Object Based / 8 channels
Channel positions : Object Based / Front: L C R, Side: L R, Back: L R, LFE
Sampling rate : / 48.0 kHz
Frame rate : 1 200.000 FPS (40 SPF)
Compression mode : Lossless
Stream size : 3.09 GiB (21%)
Title : Ingles TrueHD/Atmos 7.1 4211/7737 kbps Bluray 4k
Language : English
Default : No
Forced : No

Audio #3
ID : 4
Format : AC-3
Format/Info : Audio Coding 3
Codec ID : A_AC3
Duration : 1 h 44 min
Bit rate mode : Constant
Bit rate : 640 kb/s
Channel(s) : 6 channels
Channel positions : Front: L C R, Side: L R, LFE
Sampling rate : 48.0 kHz
Frame rate : 31.250 FPS (1536 SPF)
Bit depth : 16 bits
Compression mode : Lossy
Stream size : 480 MiB (3%)
Title : Ingles AC3 5.1 640 kbps Bluray 4k
Language : English
Service kind : Complete Main
Default : No
Forced : No

Text #1
ID : 5
Format : UTF-8
Codec ID : S_TEXT/UTF8
Codec ID/Info : UTF-8 Plain Text
Duration : 1 h 37 min
Bit rate : 66 b/s
Count of elements : 1370
Stream size : 47.6 KiB (0%)
Title : Latino
Language : Latin
Default : No
Forced : No

Text #2
ID : 6
Format : PGS
Muxing mode : zlib
Codec ID : S_HDMV/PGS
Codec ID/Info : Picture based subtitle format used on BDs/HD-DVDs
Duration : 1 h 37 min
Bit rate : 41.4 kb/s
Count of elements : 2489
Stream size : 29.0 MiB (0%)
Title : Latino
Language : Latin
Default : No
Forced : No

Text #3
ID : 7
Format : PGS
Muxing mode : zlib
Codec ID : S_HDMV/PGS
Codec ID/Info : Picture based subtitle format used on BDs/HD-DVDs
Duration : 1 h 37 min
Bit rate : 43.6 kb/s
Count of elements : 2640
Stream size : 30.5 MiB (0%)
Title : Ingles
Language : English
Default : No
Forced : No



http://i.picasion.com/resize86/9844545824b3026d793bc689d2ca154c.jpg

https://4.bp.blogspot.com/-AtZVzV-3hiU/WtlijcYBlHI/AAAAAAAADIk/jgcWB4I3ymkA9JtJd75BW01VTtMJigjqQCLcBGAs/s1600/1.png

https://4.bp.blogspot.com/-7jyxs7mdZH8/WtlijcHO4jI/AAAAAAAADIg/mmpJ2Nh_Hk0uZ4FF7BZkovqJfm38VqtQQCLcBGAs/s1600/2.png

https://2.bp.blogspot.com/-Ty8AucB1qyU/WtlijlIbHwI/AAAAAAAADIo/TChHRWPHmec4tjQEHHVDRZRDRlwmpVqIACLcBGAs/s1600/3.png

https://1.bp.blogspot.com/-fbUzYzakDA4/Wtlik3HPiXI/AAAAAAAADIs/Vzt-sGjXVlgMTK2FZvDSoOe5JJnrBp6JACLcBGAs/s1600/4.png

https://3.bp.blogspot.com/-Mei-BgxZVTI/WtlilZE-B9I/AAAAAAAADIw/ZfAjbgkVhe0HUxa9q0ue6i51D3OGHRPEgCLcBGAs/s1600/5.png

DESCARGA


Links Intercambiables

https://3.bp.blogspot.com/-n3vyYws6udw/WYitgMOaduI/AAAAAAAA1L0/PE1jBg4l_7I2Cp9SjlekwnTQbXZwrQo3wCLcBGAs/s1600/1FICHIER-BANNER.png
**Hidden Content: Check the thread to see hidden data.**

http://2.bp.blogspot.com/-nXtN7MPZ_A8/VZab6hvUJRI/AAAAAAAAsNY/1VAgQ63UKOQ/s1600/MEGA-BANNER.png
**Hidden Content: Check the thread to see hidden data.**

http://3.bp.blogspot.com/-Yh5P3OSnxaQ/UOkNsmy5n6I/AAAAAAAAFG8/J9B4jZodRqM/s1600/UPLOADED_BANNER.png
**Hidden Content: Check the thread to see hidden data.**

https://1.bp.blogspot.com/-PE8m5kK7vYo/WJoNpVnuMnI/AAAAAAAA0go/jTlWOR0KOCEoUUzcNlzAqSRBkzh8nRT4QCLcB/s1600/OPENLOAD.png
**Hidden Content: Check the thread to see hidden data.**

https://4.bp.blogspot.com/-qqShfCTogHE/WaxnWvr1vHI/AAAAAAAAAL0/aTU3k5gHeNYqWMWsFEdXHF722AwHK0bewCLcBGAs/s1600/contrase%25C3%25B1a%2Bclub%2Bhd.jpg




www.club-hd.com

joelmax18
20/04/2018, 01:54
gracias

B.A
20/04/2018, 01:55
Wey qué tramposo la posteaste cuando ya la estaba bajando ya llevá la mitad ya mero XD

Brady
20/04/2018, 02:18
Wey qué tramposo la posteaste cuando ya la estaba bajando ya llevá la mitad ya mero XD

nimodo ya te gané jajaja l0l

LANINADULCE
20/04/2018, 02:51
Desc_g_

PATRICIOG
20/04/2018, 06:48
Desc_g_

Josiba
20/04/2018, 07:53
Desc_g_

FILI19
20/04/2018, 07:57
Desc_g_

JCAvila
20/04/2018, 09:55
gracias!

pablozoladz
20/04/2018, 11:13
Desc_g_

cripp
20/04/2018, 11:57
Gracias por compartir

GASA2010
20/04/2018, 13:27
GRACIAS

flujo
20/04/2018, 14:04
gracias

tsubasa100
20/04/2018, 18:21
gracias

samuelabad
20/04/2018, 20:12
Gracias

juniorgarabo
20/04/2018, 20:52
Desc_g_

SAAEDVI
20/04/2018, 23:04
me gusta

novatoxp
20/04/2018, 23:30
Desc_g_

jafont32
21/04/2018, 03:03
Gracias

kill_b911
21/04/2018, 11:01
Desc_g_

cpola
21/04/2018, 17:25
Gracias

carlitro71
22/04/2018, 00:00
muchas gracias

elcansado
22/04/2018, 02:12
gracias, descargando

malabaresdepayaso
22/04/2018, 12:52
Desc_g_

Cristofer_pf
22/04/2018, 13:43
Excelente

suneo82
22/04/2018, 16:18
Muchas gracias por el aporte compañero!

vhrod
22/04/2018, 22:29
Desc_g_

tincho2273
25/04/2018, 00:04
Desc_g_

lordtrade
26/04/2018, 10:03
Gracias!!!

fewac
26/04/2018, 21:29
gracias!!!

jlescu
27/04/2018, 08:15
no puwdo ver los link y eso que estoy registrado

https://1.bp.blogspot.com/-3iCI0R1VMLE/WtliRW2NWJI/AAAAAAAADIc/WsfFIXVTedEOhMmEdOMrv5EV6Wm9HEI4ACLcBGAs/s1600/Commuter.jpg


https://1.bp.blogspot.com/-s6PuW6TawPg/WaxnWg-5pPI/AAAAAAAAALs/OMh7vMt1tkAKRT8kSue_zxgG64KJ0Ss1ACLcBGAs/s1600/ficha%2Btecnica%2Bclub.jpg



Título Original: The Commuter
Año: 2018
Duración: 105 min.
País: https://www.filmaffinity.com/imgs/countries/US.jpg United States
Director: Jaume Collet-Serra
Guion: Byron Willinger, Philip de Blasi
Reparto: Liam Neeson, Patrick Wilson, Vera Farmiga, Sam Neill, Jonathan Banks, Elizabeth McGovern, Dean-Charles Chapman, Clara Lago, Florence Pugh, Letitia Wright, Shazad Latif, Killian Scott, Andy Nyman, Roland Møller, Colin McFarlane, Dilyana Bouklieva, Adam Nagaitis, Kingsley Ben-Adir, Kobna Holdbrook-Smith
Productora: Coproducción Estados Unidos-Reino Unido; Lionsgate / StudioCanal / Nvizage / Ombra Films
Género: Thriller | Trenes/Metros


SINOPSIS
Durante su trayecto habitual de vuelta a casa en tren, un hombre de negocios felizmente casado comienza a hablar con una misteriosa pasajera. Pronto el hombre se verá envuelto en una conspiración criminal que amenaza con poner en peligro tanto su vida como la de sus seres más cercanos.

TRAILER

https://www.youtube.com/watch?v=y3Qv1_NV7Sg

Datos Técnicos
Video:
MPEGH HEVC / 2160p / High Profile 5.1 / 14.4 mbps

Audio:
Español Latino / AC3 5.1/ 448 kbps / 48kHz / Bluray 4k
Inglés / TrueHD/Atmos 7.1 / 4211/7737 kbps / 48kHz / Bluray 4k
Inglés / AC3 5.1 / 640 kbps / 48kHz / Bluray 4k

Subs:
Español Latino / SubRip / Bluray 4k
Español Latino / Sup / Bluray 4k
Inglés / Sup / Bluray 4k


General
Unique ID : 79456900451276339209321055003409208869 (0x3BC6D7A6A823B40F3A166A4BDA155625)
Format : Matroska
Format version : Version 4 / Version 2
File size : 14.5 GiB
Duration : 1 h 44 min
Overall bit rate mode : Variable
Overall bit rate : 19.8 Mb/s
Encoded date : UTC 2018-04-19 11:16:29
Writing application : mkvmerge v20.0.0 ('I Am The Sun') 64-bit
Writing library : libebml v1.3.5 + libmatroska v1.4.8
Uploader : Brady
Web : www.club-hd.com

Video
ID : 1
Format : HEVC
Format/Info : High Efficiency Video Coding
Format profile : Main 10@L5.1@High
Codec ID : V_MPEGH/ISO/HEVC
Duration : 1 h 44 min
Bit rate : 14.4 Mb/s
Width : 3 840 pixels
Height : 1 608 pixels
Display aspect ratio : 2.40:1
Frame rate mode : Constant
Frame rate : 23.976 (24000/1001) FPS
Color space : YUV
Chroma subsampling : 4:2:0 (Type 2)
Bit depth : 10 bits
Bits/(Pixel*Frame) : 0.097
Stream size : 10.6 GiB (73%)
Writing library : x265 2.7+336-07defe235cde:[Windows][GCC 6.3.0][64 bit] 10bit
Encoding settings : cpuid=1111039 / frame-threads=5 / numa-pools=36 / wpp / no-pmode / no-pme / no-psnr / no-ssim / log-level=2 / input-csp=1 / input-res=3840x1608 / interlace=0 / total-frames=150937 / level-idc=51 / high-tier=1 / uhd-bd=0 / ref=4 / no-allow-non-conformance / repeat-headers / annexb / aud / hrd / info / hash=0 / no-temporal-layers / no-open-gop / min-keyint=1 / keyint=24 / gop-lookahead=0 / bframes=4 / b-adapt=2 / b-pyramid / bframe-bias=0 / rc-lookahead=25 / lookahead-slices=4 / scenecut=40 / radl=0 / no-intra-refresh / ctu=64 / min-cu-size=8 / rect / no-amp / max-tu-size=32 / tu-inter-depth=1 / tu-intra-depth=1 / limit-tu=0 / rdoq-level=2 / dynamic-rd=0.00 / no-ssim-rd / signhide / no-tskip / nr-intra=0 / nr-inter=0 / no-constrained-intra / no-strong-intra-smoothing / max-merge=3 / limit-refs=3 / limit-modes / me=3 / subme=3 / merange=57 / temporal-mvp / weightp / no-weightb / no-analyze-src-pics / deblock=-3:-3 / no-sao / no-sao-non-deblock / rd=4 / no-early-skip / rskip / no-fast-intra / no-tskip-fast / no-cu-lossless / no-b-intra / no-splitrd-skip / rdpenalty=0 / psy-rd=2.00 / psy-rdoq=1.00 / no-rd-refine / no-lossless / cbqpoffs=0 / crqpoffs=0 / rc=crf / crf=17.0 / qcomp=0.60 / qpstep=4 / stats-write=0 / stats-read=0 / vbv-maxrate=160000 / vbv-bufsize=160000 / vbv-init=0.9 / crf-max=0.0 / crf-min=0.0 / ipratio=1.40 / pbratio=1.30 / aq-mode=1 / aq-strength=1.00 / cutree / zone-count=0 / no-strict-cbr / qg-size=32 / no-rc-grain / qpmax=69 / qpmin=0 / no-const-vbv / sar=1 / overscan=0 / videoformat=5 / range=0 / colorprim=9 / transfer=16 / colormatrix=9 / chromaloc=1 / chromaloc-top=2 / chromaloc-bottom=2 / display-window=0 / master-display=G(13250,34500)B(7500,3000)R(34000,16000)WP(15635,16450)L(10000000,50) / max-cll=1000,530 / min-luma=0 / max-luma=1023 / log2-max-poc-lsb=8 / vui-timing-info / vui-hrd-info / slices=1 / no-opt-qp-pps / no-opt-ref-list-length-pps / no-multi-pass-opt-rps / scenecut-bias=0.05 / no-opt-cu-delta-qp / no-aq-motion / hdr / hdr-opt / no-dhdr10-opt / no-idr-recovery-sei / analysis-reuse-level=5 / scale-factor=0 / refine-intra=0 / refine-inter=0 / refine-mv=0 / no-limit-sao / ctu-info=0 / no-lowpass-dct / refine-mv-type=0 / copy-pic=1 / max-ausize-factor=1.0 / no-dynamic-refine / no-single-sei
Language : English
Default : Yes
Forced : No
Color range : Limited
Color primaries : BT.2020
Transfer characteristics : PQ
Matrix coefficients : BT.2020 non-constant
Mastering display color primaries : Display P3
Mastering display luminance : min: 0.0050 cd/m2, max: 1000 cd/m2
Maximum Content Light Level : 1000 cd/m2
Maximum Frame-Average Light Level : 530 cd/m2

Audio #1
ID : 2
Format : AC-3
Format/Info : Audio Coding 3
Codec ID : A_AC3
Duration : 1 h 44 min
Bit rate mode : Constant
Bit rate : 448 kb/s
Channel(s) : 6 channels
Channel positions : Front: L C R, Side: L R, LFE
Sampling rate : 48.0 kHz
Frame rate : 31.250 FPS (1536 SPF)
Bit depth : 16 bits
Compression mode : Lossy
Stream size : 336 MiB (2%)
Title : Latino AC3 5.1 448 kbps Bluray 4k
Language : Latin
Service kind : Complete Main
Default : Yes
Forced : No

Audio #2
ID : 3
Format : TrueHD
Format profile : TrueHD+Atmos / TrueHD
Codec ID : A_TRUEHD
Duration : 1 h 44 min
Bit rate mode : Variable
Bit rate : 4 211 kb/s
Maximum bit rate : 7 737 kb/s
Channel(s) : Object Based / 8 channels
Channel positions : Object Based / Front: L C R, Side: L R, Back: L R, LFE
Sampling rate : / 48.0 kHz
Frame rate : 1 200.000 FPS (40 SPF)
Compression mode : Lossless
Stream size : 3.09 GiB (21%)
Title : Ingles TrueHD/Atmos 7.1 4211/7737 kbps Bluray 4k
Language : English
Default : No
Forced : No

Audio #3
ID : 4
Format : AC-3
Format/Info : Audio Coding 3
Codec ID : A_AC3
Duration : 1 h 44 min
Bit rate mode : Constant
Bit rate : 640 kb/s
Channel(s) : 6 channels
Channel positions : Front: L C R, Side: L R, LFE
Sampling rate : 48.0 kHz
Frame rate : 31.250 FPS (1536 SPF)
Bit depth : 16 bits
Compression mode : Lossy
Stream size : 480 MiB (3%)
Title : Ingles AC3 5.1 640 kbps Bluray 4k
Language : English
Service kind : Complete Main
Default : No
Forced : No

Text #1
ID : 5
Format : UTF-8
Codec ID : S_TEXT/UTF8
Codec ID/Info : UTF-8 Plain Text
Duration : 1 h 37 min
Bit rate : 66 b/s
Count of elements : 1370
Stream size : 47.6 KiB (0%)
Title : Latino
Language : Latin
Default : No
Forced : No

Text #2
ID : 6
Format : PGS
Muxing mode : zlib
Codec ID : S_HDMV/PGS
Codec ID/Info : Picture based subtitle format used on BDs/HD-DVDs
Duration : 1 h 37 min
Bit rate : 41.4 kb/s
Count of elements : 2489
Stream size : 29.0 MiB (0%)
Title : Latino
Language : Latin
Default : No
Forced : No

Text #3
ID : 7
Format : PGS
Muxing mode : zlib
Codec ID : S_HDMV/PGS
Codec ID/Info : Picture based subtitle format used on BDs/HD-DVDs
Duration : 1 h 37 min
Bit rate : 43.6 kb/s
Count of elements : 2640
Stream size : 30.5 MiB (0%)
Title : Ingles
Language : English
Default : No
Forced : No



http://i.picasion.com/resize86/9844545824b3026d793bc689d2ca154c.jpg

https://4.bp.blogspot.com/-AtZVzV-3hiU/WtlijcYBlHI/AAAAAAAADIk/jgcWB4I3ymkA9JtJd75BW01VTtMJigjqQCLcBGAs/s1600/1.png

https://4.bp.blogspot.com/-7jyxs7mdZH8/WtlijcHO4jI/AAAAAAAADIg/mmpJ2Nh_Hk0uZ4FF7BZkovqJfm38VqtQQCLcBGAs/s1600/2.png

https://2.bp.blogspot.com/-Ty8AucB1qyU/WtlijlIbHwI/AAAAAAAADIo/TChHRWPHmec4tjQEHHVDRZRDRlwmpVqIACLcBGAs/s1600/3.png

https://1.bp.blogspot.com/-fbUzYzakDA4/Wtlik3HPiXI/AAAAAAAADIs/Vzt-sGjXVlgMTK2FZvDSoOe5JJnrBp6JACLcBGAs/s1600/4.png

https://3.bp.blogspot.com/-Mei-BgxZVTI/WtlilZE-B9I/AAAAAAAADIw/ZfAjbgkVhe0HUxa9q0ue6i51D3OGHRPEgCLcBGAs/s1600/5.png

DESCARGA


Links Intercambiables

https://3.bp.blogspot.com/-n3vyYws6udw/WYitgMOaduI/AAAAAAAA1L0/PE1jBg4l_7I2Cp9SjlekwnTQbXZwrQo3wCLcBGAs/s1600/1FICHIER-BANNER.png
***Hidden content cannot be quoted.***

http://2.bp.blogspot.com/-nXtN7MPZ_A8/VZab6hvUJRI/AAAAAAAAsNY/1VAgQ63UKOQ/s1600/MEGA-BANNER.png
***Hidden content cannot be quoted.***

http://3.bp.blogspot.com/-Yh5P3OSnxaQ/UOkNsmy5n6I/AAAAAAAAFG8/J9B4jZodRqM/s1600/UPLOADED_BANNER.png
***Hidden content cannot be quoted.***

https://1.bp.blogspot.com/-PE8m5kK7vYo/WJoNpVnuMnI/AAAAAAAA0go/jTlWOR0KOCEoUUzcNlzAqSRBkzh8nRT4QCLcB/s1600/OPENLOAD.png
***Hidden content cannot be quoted.***

https://4.bp.blogspot.com/-qqShfCTogHE/WaxnWvr1vHI/AAAAAAAAAL0/aTU3k5gHeNYqWMWsFEdXHF722AwHK0bewCLcBGAs/s1600/contrase%25C3%25B1a%2Bclub%2Bhd.jpg




www.club-hd.com

alesgdl
28/04/2018, 19:40
muchas gracias

ecuavideos
29/04/2018, 23:42
gracias

childforever
03/05/2018, 16:56
graciasss

carlospal
03/05/2018, 22:29
gracias

Chris2000
06/05/2018, 00:10
Gracias :yessir:

Sassha
13/05/2018, 03:33
Desc_g_

perseo36
18/05/2018, 18:21
Desc_g_

gusmnes
26/05/2018, 09:46
Buenisimo

troyano2010
08/06/2018, 12:04
Desc_g_

mambex86
09/06/2018, 02:10
Desc_g_!!!!!

pancho92
09/06/2018, 13:39
Gracias!

Jonathan izaguirre
24/06/2018, 12:53
gracias

albertocastillo
01/08/2018, 11:36
gracias

totofloyd
06/08/2018, 13:34
gracias muy buen aporteDesc_g_