PDA

Ver la versión completa : X-Men: Apocalypse (2016) 2160p 4k UHD HDR Dual Latino-Inglés [Subt. Esp] (Ciencia Ficción. Acción)



Brady
18/04/2018, 10:21
https://3.bp.blogspot.com/-b7UwGeJJ7MY/WtR_WCxqQ0I/AAAAAAAADEQ/k8NyD93HbtweSlXa_BV5N0S-oTQIfPv3QCLcBGAs/s1600/X-Men%2B3.jpg


https://1.bp.blogspot.com/-s6PuW6TawPg/WaxnWg-5pPI/AAAAAAAAALs/OMh7vMt1tkAKRT8kSue_zxgG64KJ0Ss1ACLcBGAs/s1600/ficha%2Btecnica%2Bclub.jpg



Título Original: X-Men: Apocalypse
Año: 2016
Duración: 143 min.
País: https://www.filmaffinity.com/imgs/countries/US.jpg United States
Director: Bryan Singer
Guion: Simon Kinberg (Historia: Mike Dougherty, Dan Harris, Bryan Singer, Simon Kinberg)
Reparto: James McAvoy, Michael Fassbender, Jennifer Lawrence, Nicholas Hoult, Oscar Isaac, Rose Byrne, Evan Peters, Sophie Turner, Tye Sheridan, Josh Helman, Kodi Smit-McPhee, Lucas Till, Alexandra Shipp, Olivia Munn, Lana Condor, Hugh Jackman, Stan Lee
Productora: Twentieth Century Fox Film Corporation / Marvel Entertainment
Género: Ciencia ficción. Acción | Años 80. Secuela. Superhéroes. Cómic. Marvel Comics


SINOPSIS
Desde el inicio de los tiempos Apocalipsis, el mutante más poderoso que ha existido nunca, era adorado como un dios mientras acumulaba los poderes del resto de mutantes convirtiéndose en un ser inmortal. Tras miles de años dormido, despierta en un mundo que no le gusta y por ello recluta un equipo, encabezado por Magneto, para acabar con toda la humanidad y crear un nuevo orden mundial. Pero el Profesor X, con la ayuda de Mística, se unirá a un grupo de jóvenes mutantes para tratar de detener al mayor enemigo contra el que se hayan enfrentado jamás.

TRAILER

https://www.youtube.com/watch?v=PfBVIHgQbYk

Datos Técnicos
Video:
MPEGH HEVC / 2160p / High Profile 5.1 / 15.2 mbps

Audio:
Español Latino / AC3 5.1/ 448 kbps / 48kHz / Bluray 4k
Inglés / TrueHD/Atmos 7.1 / 5352/10 kbps/mbps / 48kHz / Bluray 4k
Inglés / AC3 5.1/ 640 kbps / 48kHz / Bluray 4k

Subs:
Español Latino / Sup / Bluray 4k
Inglés / Sup / Bluray 4k


General
Unique ID : 242485429627331071899240512672585779995 (0xB66CFEB84CAFCD232034D8D093008B1B)
Format : Matroska
Format version : Version 4 / Version 2
File size : 21.9 GiB
Duration : 2 h 23 min
Overall bit rate mode : Variable
Overall bit rate : 21.8 Mb/s
Encoded date : UTC 2018-04-16 12:51:03
Writing application : mkvmerge v20.0.0 ('I Am The Sun') 64-bit
Writing library : libebml v1.3.5 + libmatroska v1.4.8
Uploader : Brady
Web : www.club-hd.com

Video
ID : 1
Format : HEVC
Format/Info : High Efficiency Video Coding
Format profile : Main 10@L5.1@High
Codec ID : V_MPEGH/ISO/HEVC
Duration : 2 h 23 min
Bit rate : 15.2 Mb/s
Width : 3 840 pixels
Height : 1 600 pixels
Display aspect ratio : 2.40:1
Frame rate mode : Constant
Frame rate : 23.976 (24000/1001) FPS
Color space : YUV
Chroma subsampling : 4:2:0 (Type 2)
Bit depth : 10 bits
Bits/(Pixel*Frame) : 0.103
Stream size : 15.3 GiB (70%)
Writing library : x265 2.5+24-0cdb464618ee:[Windows][GCC 6.2.1][64 bit] 10bit
Encoding settings : cpuid=1173503 / frame-threads=4 / numa-pools=20 / wpp / no-pmode / no-pme / no-psnr / no-ssim / log-level=2 / input-csp=1 / input-res=3840x1600 / interlace=0 / total-frames=207112 / level-idc=51 / high-tier=1 / uhd-bd=0 / ref=4 / no-allow-non-conformance / repeat-headers / annexb / aud / hrd / info / hash=0 / no-temporal-layers / no-open-gop / min-keyint=1 / keyint=24 / bframes=4 / b-adapt=2 / b-pyramid / bframe-bias=0 / rc-lookahead=25 / lookahead-slices=4 / scenecut=40 / no-intra-refresh / ctu=64 / min-cu-size=8 / rect / no-amp / max-tu-size=32 / tu-inter-depth=1 / tu-intra-depth=1 / limit-tu=0 / rdoq-level=2 / dynamic-rd=0.00 / no-ssim-rd / signhide / no-tskip / nr-intra=0 / nr-inter=0 / no-constrained-intra / no-strong-intra-smoothing / max-merge=3 / limit-refs=3 / limit-modes / me=3 / subme=3 / merange=57 / temporal-mvp / weightp / no-weightb / no-analyze-src-pics / deblock=-2:-2 / no-sao / no-sao-non-deblock / rd=4 / no-early-skip / rskip / no-fast-intra / no-tskip-fast / no-cu-lossless / no-b-intra / no-splitrd-skip / rdpenalty=0 / psy-rd=2.00 / psy-rdoq=1.00 / no-rd-refine / analysis-reuse-mode=0 / no-lossless / cbqpoffs=0 / crqpoffs=0 / rc=crf / crf=17.0 / qcomp=0.60 / qpstep=4 / stats-write=0 / stats-read=0 / vbv-maxrate=160000 / vbv-bufsize=160000 / vbv-init=0.9 / crf-max=0.0 / crf-min=0.0 / ipratio=1.40 / pbratio=1.30 / aq-mode=1 / aq-strength=1.00 / cutree / zone-count=0 / no-strict-cbr / qg-size=32 / no-rc-grain / qpmax=69 / qpmin=0 / no-const-vbv / sar=1 / overscan=0 / videoformat=5 / range=0 / colorprim=9 / transfer=16 / colormatrix=9 / chromaloc=1 / chromaloc-top=2 / chromaloc-bottom=2 / display-window=0 / master-display=G(13250,34500)B(7500,3000)R(34000,16000)WP(15635,16450)L(10000000,0) / max-cll=0,0 / min-luma=0 / max-luma=1023 / log2-max-poc-lsb=8 / vui-timing-info / vui-hrd-info / slices=1 / opt-qp-pps / opt-ref-list-length-pps / no-multi-pass-opt-rps / scenecut-bias=0.05 / no-opt-cu-delta-qp / no-aq-motion / hdr / hdr-opt / no-dhdr10-opt / analysis-reuse-level=5 / scale-factor=0 / refine-intra=0 / refine-inter=0 / refine-mv=0 / no-limit-sao / ctu-info=0
Language : English
Default : Yes
Forced : No
Color range : Limited
Color primaries : BT.2020
Transfer characteristics : PQ
Matrix coefficients : BT.2020 non-constant
Mastering display color primaries : Display P3
Mastering display luminance : min: 0.0000 cd/m2, max: 1000 cd/m2

Audio #1
ID : 2
Format : AC-3
Format/Info : Audio Coding 3
Codec ID : A_AC3
Duration : 2 h 23 min
Bit rate mode : Constant
Bit rate : 448 kb/s
Channel(s) : 6 channels
Channel positions : Front: L C R, Side: L R, LFE
Sampling rate : 48.0 kHz
Frame rate : 31.250 FPS (1536 SPF)
Bit depth : 16 bits
Compression mode : Lossy
Stream size : 461 MiB (2%)
Title : Latino AC3 5.1 448 kbps Bluray 4k
Language : Latin
Service kind : Complete Main
Default : Yes
Forced : No

Audio #2
ID : 3
Format : TrueHD
Format profile : TrueHD+Atmos / TrueHD
Codec ID : A_TRUEHD
Duration : 2 h 23 min
Bit rate mode : Variable
Bit rate : 5 352 kb/s
Maximum bit rate : 10.0 Mb/s
Channel(s) : Object Based / 8 channels
Channel positions : Object Based / Front: L C R, Side: L R, Back: L R, LFE
Sampling rate : / 48.0 kHz
Frame rate : 1 200.000 FPS (40 SPF)
Compression mode : Lossless
Stream size : 5.38 GiB (25%)
Title : Ingles TrueHD/Atmos 7.1 5352 kbps Bluray 4k
Language : English
Default : No
Forced : No

Audio #3
ID : 4
Format : AC-3
Format/Info : Audio Coding 3
Codec ID : A_AC3
Duration : 2 h 23 min
Bit rate mode : Constant
Bit rate : 640 kb/s
Channel(s) : 6 channels
Channel positions : Front: L C R, Side: L R, LFE
Sampling rate : 48.0 kHz
Frame rate : 31.250 FPS (1536 SPF)
Bit depth : 16 bits
Compression mode : Lossy
Stream size : 659 MiB (3%)
Title : Ingles AC3 5.1 640 kbps Bluray 4k
Language : English
Service kind : Complete Main
Default : No
Forced : No

Text #1
ID : 5
Format : PGS
Muxing mode : zlib
Codec ID : S_HDMV/PGS
Codec ID/Info : Picture based subtitle format used on BDs/HD-DVDs
Duration : 2 h 22 min
Bit rate : 21.5 kb/s
Count of elements : 2816
Stream size : 22.0 MiB (0%)
Title : Latino
Language : Latin
Default : No
Forced : No

Text #2
ID : 6
Format : PGS
Muxing mode : zlib
Codec ID : S_HDMV/PGS
Codec ID/Info : Picture based subtitle format used on BDs/HD-DVDs
Duration : 2 h 21 min
Bit rate : 29.9 kb/s
Count of elements : 3818
Stream size : 30.3 MiB (0%)
Title : Ingles
Language : English
Default : No
Forced : No



http://i.picasion.com/resize86/9844545824b3026d793bc689d2ca154c.jpg

https://4.bp.blogspot.com/-P7sZILJ0CTI/WtSRETPd7_I/AAAAAAAADFQ/hV6xDoFcFToBOJW1q1wOPUMcOOOUdnIiwCLcBGAs/s1600/11.png

https://2.bp.blogspot.com/-T4ROZSVfkhY/WtSRF4yI0SI/AAAAAAAADFY/-B2VWQDoVUACrGpX--DyKUBhbgyWBHY0ACLcBGAs/s1600/12.png

https://1.bp.blogspot.com/-PiGZZGdTGJ4/WtSRGEdg0rI/AAAAAAAADFg/NdbpgLGwJUA8bYMN2GNM13Z5twZ_vJHwwCLcBGAs/s1600/13.png

https://4.bp.blogspot.com/--jwL8lapYnw/WtSRGDEVKXI/AAAAAAAADFc/Vlo8gFMdzhQ8CGstYmT7Ls66j8-mBybfwCLcBGAs/s1600/14.png

https://1.bp.blogspot.com/--x7-Qg_ckXM/WtSRHuAHmSI/AAAAAAAADFs/gQaplSEBqLM0DEb4jqyOmZ0U4QXaWabHgCLcBGAs/s1600/15.png

DESCARGA


Links Intercambiables

https://3.bp.blogspot.com/-n3vyYws6udw/WYitgMOaduI/AAAAAAAA1L0/PE1jBg4l_7I2Cp9SjlekwnTQbXZwrQo3wCLcBGAs/s1600/1FICHIER-BANNER.png
**Hidden Content: Check the thread to see hidden data.**

http://2.bp.blogspot.com/-nXtN7MPZ_A8/VZab6hvUJRI/AAAAAAAAsNY/1VAgQ63UKOQ/s1600/MEGA-BANNER.png
**Hidden Content: Check the thread to see hidden data.**

http://3.bp.blogspot.com/-Yh5P3OSnxaQ/UOkNsmy5n6I/AAAAAAAAFG8/J9B4jZodRqM/s1600/UPLOADED_BANNER.png
**Hidden Content: Check the thread to see hidden data.**

https://1.bp.blogspot.com/-PE8m5kK7vYo/WJoNpVnuMnI/AAAAAAAA0go/jTlWOR0KOCEoUUzcNlzAqSRBkzh8nRT4QCLcB/s1600/OPENLOAD.png
**Hidden Content: Check the thread to see hidden data.**

https://4.bp.blogspot.com/-qqShfCTogHE/WaxnWvr1vHI/AAAAAAAAAL0/aTU3k5gHeNYqWMWsFEdXHF722AwHK0bewCLcBGAs/s1600/contrase%25C3%25B1a%2Bclub%2Bhd.jpg




www.club-hd.com

Josiba
18/04/2018, 10:37
Desc_g_

ismar360
18/04/2018, 10:50
Desc_g_

flujo
18/04/2018, 12:42
gracias

PATRICIOG
18/04/2018, 13:27
Desc_g_

consuelobarturen
18/04/2018, 14:17
graciasssssss

JCAvila
18/04/2018, 15:32
gracias!

virus619
18/04/2018, 22:25
Desc_g_

Gibraine
19/04/2018, 01:12
gracias

novatoxp
19/04/2018, 01:37
Desc_g_

jafont32
19/04/2018, 07:38
Gracias

cripp
19/04/2018, 15:19
Gracias por compartir

joelmax18
20/04/2018, 01:59
gracias

samuelabad
20/04/2018, 20:11
Gracias

tsubasa100
20/04/2018, 20:22
gracias

juniorgarabo
20/04/2018, 20:55
Desc_g_

LANINADULCE
21/04/2018, 02:57
Desc_g_

cpola
21/04/2018, 16:52
Gracias

mathiasfx
21/04/2018, 22:53
que bueno en 4k

sosalexfame
23/04/2018, 03:44
gracias

Genji
23/04/2018, 11:48
¡¡¡Excelente aporte, mil gracias!!! :dplgar:
Desc_g_

fewac
26/04/2018, 14:02
Gracias!!!

dastan84
28/04/2018, 00:51
gracias

ecuavideos
29/04/2018, 23:44
gracias

elefante2011
03/05/2018, 17:42
Gracias!!!

homero
03/05/2018, 20:02
graciass

frankarter
05/05/2018, 20:24
Desc_g_

RESIDENT_EVIL
07/05/2018, 14:25
Desc_g_Desc_g_

silnarvaez
09/05/2018, 07:56
gracias

davisariel
12/05/2018, 00:05
bajando peli gracias

xikoh99
20/05/2018, 15:54
Desc_g_

MasterSombrA
24/05/2018, 18:15
de pelos gracias

katriel13
26/05/2018, 21:47
links caídos.

Darkains
27/05/2018, 13:48
Desc_g_

kalipitter
11/06/2018, 00:03
La coleecion gracias

msr.1899
12/06/2018, 11:07
gracias

pjcortez
04/07/2018, 12:12
Desc_g_