PDA

Ver la versión completa : X-Men: Days Of Future Past (2014) 2160p 4k UHD HDR Dual Latino-Inglés [Subt. Esp] (Ciencia Ficción. Fantástico)



Brady
18/04/2018, 10:21
https://4.bp.blogspot.com/-vB_Uo3mFK3w/WtR_WA5lW8I/AAAAAAAADEU/NwRjOVkkUU85Tk27KHN4iSlZrXS7zIWDgCLcBGAs/s1600/X-Men%2B2.jpg


https://1.bp.blogspot.com/-s6PuW6TawPg/WaxnWg-5pPI/AAAAAAAAALs/OMh7vMt1tkAKRT8kSue_zxgG64KJ0Ss1ACLcBGAs/s1600/ficha%2Btecnica%2Bclub.jpg



Título Original: X-Men: Days Of Future Past
Año: 2014
Duración: 130 min.
País: https://www.filmaffinity.com/imgs/countries/US.jpg United States
Director: Bryan Singer
Guion: Simon Kinberg (Historia: Simon Kinberg, Matthew Vaughn, Jane Goldman. Cómic: John Byrne)
Reparto: Hugh Jackman, James McAvoy, Michael Fassbender, Jennifer Lawrence, Omar Sy, Nicholas Hoult, Ian McKellen, Patrick Stewart, Ellen Page, Lucas Till, Halle Berry, Shawn Ashmore, Peter Dinklage, Evan Peters, Daniel Cudmore, Booboo Stewart, Adan Canto, Fan Bingbing, Josh Helman, Larry Day, Gregg Lowe, Anna Paquin, Evan Jonigkeit, Mark Camacho, Famke Janssen, James Marsden, Kelsey Grammer, Tim Post, Zehra Leverman
Productora: 20th Century Fox / Marvel / Bad Hat Harry Productions
Género: Ciencia ficción. Fantástico. Acción | Superhéroes. Cómic. Marvel Comics. Viajes en el tiempo. Secuela


SINOPSIS
Los X-Men luchan por la supervivencia de la especie en una guerra que se desarrolla en épocas diferentes. Los personajes de la trilogía cinematográfica original de “X-Men” unen sus fuerzas a las que ellos mismos poseían en el pasado, cuando eran más jóvenes (tal y como aparecen en “X-Men: Primera generación”), para cambiar un importante acontecimiento histórico y librar una épica batalla que podría salvar nuestro futuro.

TRAILER

https://www.youtube.com/watch?v=pshSBhxfabo

Datos Técnicos
Video:
MPEGH HEVC / 2160p / High Profile 5.1 / 16.1 mbps

Audio:
Español Latino / AC3 5.1/ 448 kbps / 48kHz / Bluray 4k
Inglés / DTS-HD MA/ES Matrix/Core 7.1/6.1/5.1 / 5490/5490/1509 kbps / 48kHz / Bluray 4k

Subs:
Español Latino / Sup / Bluray 4k
Inglés / Sup / Bluray 4k


General
Unique ID : 125653605160956776481410288741375664494 (0x5E88010B62888187B24D3E2990EDE16E)
Format : Matroska
Format version : Version 4 / Version 2
File size : 20.3 GiB
Duration : 2 h 11 min
Overall bit rate : 22.0 Mb/s
Encoded date : UTC 2018-04-16 12:43:01
Writing application : mkvmerge v20.0.0 ('I Am The Sun') 64-bit
Writing library : libebml v1.3.5 + libmatroska v1.4.8
Uploader : Brady
Web : www.club-hd.com

Video
ID : 1
Format : HEVC
Format/Info : High Efficiency Video Coding
Format profile : Main 10@L5.1@High
Codec ID : V_MPEGH/ISO/HEVC
Duration : 2 h 11 min
Bit rate : 16.1 Mb/s
Width : 3 840 pixels
Height : 1 600 pixels
Display aspect ratio : 2.40:1
Frame rate mode : Constant
Frame rate : 23.976 (24000/1001) FPS
Color space : YUV
Chroma subsampling : 4:2:0 (Type 2)
Bit depth : 10 bits
Bits/(Pixel*Frame) : 0.109
Stream size : 14.8 GiB (73%)
Writing library : x265 2.6+12-7bd8751a8183:[Windows][GCC 7.2.0][64 bit] 10bit
Encoding settings : cpuid=1173503 / frame-threads=4 / numa-pools=16 / wpp / no-pmode / no-pme / no-psnr / no-ssim / log-level=2 / input-csp=1 / input-res=3840x1600 / interlace=0 / total-frames=189297 / level-idc=51 / high-tier=1 / uhd-bd=0 / ref=4 / no-allow-non-conformance / repeat-headers / annexb / aud / hrd / info / hash=0 / no-temporal-layers / no-open-gop / min-keyint=24 / keyint=240 / gop-lookahead=0 / bframes=4 / b-adapt=2 / b-pyramid / bframe-bias=0 / rc-lookahead=25 / lookahead-slices=4 / scenecut=40 / no-intra-refresh / ctu=64 / min-cu-size=8 / rect / no-amp / max-tu-size=32 / tu-inter-depth=1 / tu-intra-depth=1 / limit-tu=0 / rdoq-level=2 / dynamic-rd=0.00 / no-ssim-rd / signhide / no-tskip / nr-intra=0 / nr-inter=0 / no-constrained-intra / no-strong-intra-smoothing / max-merge=3 / limit-refs=3 / limit-modes / me=3 / subme=3 / merange=57 / temporal-mvp / weightp / no-weightb / no-analyze-src-pics / deblock=-3:-3 / no-sao / no-sao-non-deblock / rd=4 / no-early-skip / rskip / no-fast-intra / no-tskip-fast / no-cu-lossless / no-b-intra / no-splitrd-skip / rdpenalty=0 / psy-rd=2.00 / psy-rdoq=1.00 / no-rd-refine / analysis-reuse-mode=0 / no-lossless / cbqpoffs=0 / crqpoffs=0 / rc=crf / crf=17.0 / qcomp=0.60 / qpstep=4 / stats-write=0 / stats-read=0 / vbv-maxrate=160000 / vbv-bufsize=160000 / vbv-init=0.9 / crf-max=0.0 / crf-min=0.0 / ipratio=1.40 / pbratio=1.30 / aq-mode=1 / aq-strength=1.00 / cutree / zone-count=0 / no-strict-cbr / qg-size=32 / no-rc-grain / qpmax=69 / qpmin=0 / no-const-vbv / sar=1 / overscan=0 / videoformat=5 / range=0 / colorprim=9 / transfer=16 / colormatrix=9 / chromaloc=1 / chromaloc-top=2 / chromaloc-bottom=2 / display-window=0 / master-display=G(13250,34500)B(7500,3000)R(34000,16000)WP(15635,16450)L(11000000,0) / max-cll=0,0 / min-luma=0 / max-luma=1023 / log2-max-poc-lsb=8 / vui-timing-info / vui-hrd-info / slices=1 / opt-qp-pps / opt-ref-list-length-pps / no-multi-pass-opt-rps / scenecut-bias=0.05 / no-opt-cu-delta-qp / no-aq-motion / hdr / hdr-opt / no-dhdr10-opt / analysis-reuse-level=5 / scale-factor=0 / refine-intra=0 / refine-inter=0 / refine-mv=0 / no-limit-sao / ctu-info=0 / no-lowpass-dct / refine-mv-type=0 / copy-pic=1
Language : English
Default : Yes
Forced : No
Color range : Limited
Color primaries : BT.2020
Transfer characteristics : PQ
Matrix coefficients : BT.2020 non-constant
Mastering display color primaries : Display P3
Mastering display luminance : min: 0.0000 cd/m2, max: 1100 cd/m2

Audio #1
ID : 2
Format : AC-3
Format/Info : Audio Coding 3
Codec ID : A_AC3
Duration : 2 h 11 min
Bit rate mode : Constant
Bit rate : 448 kb/s
Channel(s) : 6 channels
Channel positions : Front: L C R, Side: L R, LFE
Sampling rate : 48.0 kHz
Frame rate : 31.250 FPS (1536 SPF)
Bit depth : 16 bits
Compression mode : Lossy
Stream size : 422 MiB (2%)
Title : Latino AC3 5.1 448 kbps Bluray 4k
Language : Latin
Service kind : Complete Main
Default : Yes
Forced : No

Audio #2
ID : 3
Format : DTS
Format/Info : Digital Theater Systems
Format profile : MA / ES Matrix / Core
Codec ID : A_DTS
Duration : 2 h 11 min
Bit rate mode : Variable / Constant / Constant
Bit rate : 5 490 kb/s / 1 509 kb/s / 1 509 kb/s
Channel(s) : 8 channels / 7 channels / 6 channels
Channel positions : Front: L C R, Side: L R, Back: L R, LFE / Front: L C R, Side: L R, Back: C, LFE / Front: L C R, Side: L R, LFE
Sampling rate : 48.0 kHz
Frame rate : 93.750 FPS (512 SPF)
Bit depth : 24 bits
Compression mode : Lossless / Lossy / Lossy
Stream size : 5.05 GiB (25%)
Title : Ingles DTS-HD MA/ES Matrix/Core 7.1/6.1/5.1 5490/5490/1509 kbps Bluray 4k
Language : English
Default : No
Forced : No

Text #1
ID : 4
Format : PGS
Muxing mode : zlib
Codec ID : S_HDMV/PGS
Codec ID/Info : Picture based subtitle format used on BDs/HD-DVDs
Duration : 2 h 10 min
Bit rate : 24.8 kb/s
Count of elements : 2470
Stream size : 23.2 MiB (0%)
Title : Latino
Language : Latin
Default : No
Forced : No

Text #2
ID : 5
Format : PGS
Muxing mode : zlib
Codec ID : S_HDMV/PGS
Codec ID/Info : Picture based subtitle format used on BDs/HD-DVDs
Duration : 2 h 9 min
Bit rate : 31.4 kb/s
Count of elements : 3414
Stream size : 29.2 MiB (0%)
Title : Ingles
Language : English
Default : No
Forced : No



http://i.picasion.com/resize86/9844545824b3026d793bc689d2ca154c.jpg

https://1.bp.blogspot.com/-ZpxKvit7M1U/WtSRMDu8H3I/AAAAAAAADGM/GTZ_PYNHe3gTijonhuOOE8bKgml5UL6oACLcBGAs/s1600/6.png

https://2.bp.blogspot.com/-rP38sV1DHeI/WtSRMcM4omI/AAAAAAAADGQ/R7LsuetgMvg8jpvlJVwLXTgvGEZd4-vIwCLcBGAs/s1600/7.png

https://1.bp.blogspot.com/-pXk_QNdNOTo/WtSRNJ4utrI/AAAAAAAADGU/uvIgG0EXwUomB_eefEJMcO9lL3QSZKfLACLcBGAs/s1600/8.png

https://3.bp.blogspot.com/-wSScI8ToAw4/WtSROAHbi5I/AAAAAAAADGY/ymrHYuB4XfYXvR5i9oHgt0dce8-MVTfjQCLcBGAs/s1600/9.png

https://1.bp.blogspot.com/-XEVB9pkOJGo/WtSREXaU1ZI/AAAAAAAADFU/21ETn8nJBcoq7XmgzxO3el_SnYwENXfGgCLcBGAs/s1600/10.png

DESCARGA


Links Intercambiables

https://3.bp.blogspot.com/-n3vyYws6udw/WYitgMOaduI/AAAAAAAA1L0/PE1jBg4l_7I2Cp9SjlekwnTQbXZwrQo3wCLcBGAs/s1600/1FICHIER-BANNER.png
**Hidden Content: Check the thread to see hidden data.**

http://2.bp.blogspot.com/-nXtN7MPZ_A8/VZab6hvUJRI/AAAAAAAAsNY/1VAgQ63UKOQ/s1600/MEGA-BANNER.png
**Hidden Content: Check the thread to see hidden data.**

http://3.bp.blogspot.com/-Yh5P3OSnxaQ/UOkNsmy5n6I/AAAAAAAAFG8/J9B4jZodRqM/s1600/UPLOADED_BANNER.png
**Hidden Content: Check the thread to see hidden data.**

https://1.bp.blogspot.com/-PE8m5kK7vYo/WJoNpVnuMnI/AAAAAAAA0go/jTlWOR0KOCEoUUzcNlzAqSRBkzh8nRT4QCLcB/s1600/OPENLOAD.png
**Hidden Content: Check the thread to see hidden data.**

https://4.bp.blogspot.com/-qqShfCTogHE/WaxnWvr1vHI/AAAAAAAAAL0/aTU3k5gHeNYqWMWsFEdXHF722AwHK0bewCLcBGAs/s1600/contrase%25C3%25B1a%2Bclub%2Bhd.jpg




www.club-hd.com

Josiba
18/04/2018, 10:36
Desc_g_

ismar360
18/04/2018, 10:50
Desc_g_

flujo
18/04/2018, 12:43
gracias

PATRICIOG
18/04/2018, 13:29
Desc_g_

consuelobarturen
18/04/2018, 14:07
graciassssssss

JCAvila
18/04/2018, 15:32
gracias!

gokuledezma
18/04/2018, 20:05
graciassss

virus619
18/04/2018, 22:23
Desc_g_

Gibraine
19/04/2018, 01:13
grcias!

novatoxp
19/04/2018, 01:35
Desc_g_

cripp
19/04/2018, 15:20
Gracias por compartir

kalipitter
20/04/2018, 01:30
Gracias

joelmax18
20/04/2018, 01:58
gracias

samuelabad
20/04/2018, 20:10
gGracias

tsubasa100
20/04/2018, 20:23
gracias

juniorgarabo
20/04/2018, 20:55
Desc_g_

cpola
21/04/2018, 16:50
Gracias

sosalexfame
23/04/2018, 03:45
gracias

fewac
26/04/2018, 14:05
Gracias!!!

ecuavideos
29/04/2018, 23:46
gracias

Genji
02/05/2018, 11:23
¡¡¡Excelente aporte, mil gracias!!! :pulgar2:
Desc_g_

frankarter
05/05/2018, 20:01
Desc_g_

davisariel
05/05/2018, 20:15
buen aporte gracaias Desc_g_

dastan84
07/05/2018, 15:09
gracias

dalofe
07/05/2018, 15:42
Desc_g_:pulgar1:

silnarvaez
08/05/2018, 08:16
gracias

xikoh99
20/05/2018, 15:53
Desc_g_

Darkains
27/05/2018, 13:47
Desc_g_

msr.1899
12/06/2018, 11:08
gracias

fernando4555
12/06/2018, 12:58
Desc_g_

mikekrooz
12/07/2018, 20:45
Muchas gracias!
Desc_g_