PDA

Ver la versión completa : X-Men: First Class (2011) 2160p 4k UHD HDR Dual Latino-Inglés [Subt. Esp] (Ciencia Ficción. Aventuras)



Brady
18/04/2018, 10:20
https://4.bp.blogspot.com/-3EkVC7Tg9LU/WtR_WL5jf_I/AAAAAAAADEY/nJ8ispALIvMnVNPdS0Vy1n7SZIjsn0s-wCLcBGAs/s1600/X-Men%2B1.jpg


https://1.bp.blogspot.com/-s6PuW6TawPg/WaxnWg-5pPI/AAAAAAAAALs/OMh7vMt1tkAKRT8kSue_zxgG64KJ0Ss1ACLcBGAs/s1600/ficha%2Btecnica%2Bclub.jpg



Título Original: X-Men: First Class
Año: 2011
Duración: 131 min.
País: https://www.filmaffinity.com/imgs/countries/US.jpg United States
Director: Matthew Vaughn
Guion: Ashley Miller, Zack Stentz, Jane Goldman, Matthew Vaughn (Historia: Bryan Singer, Sheldon Turner)
Reparto: James McAvoy, Michael Fassbender, Kevin Bacon, Jennifer Lawrence, January Jones, Jason Flemyng, Rose Byrne, Oliver Platt, Nicholas Hoult, Álex González, Lucas Till, Zoë Kravitz, James Remar, Matt Craven, Rade Serbedzija, Michael Ironside, Laurence Belcher, Bill Milner, Beth Goddard, Morgan Lily, Caleb Landry Jones, Edi Gathegi, Ray Wise, Hugh Jackman, Katrine de Candole, Glenn Morshower
Productora: 20th Century Fox / Marvel Entertainment / Bad Hat Harry Productions
Género: Ciencia ficción. Aventuras. Acción. Fantástico | Años 60. Guerra Fría. Superhéroes. Cómic. Marvel Comics. Precuela


SINOPSIS
Antes de que los mutantes se dieran a conocer y adoptaran los nombres de Profesor X y Magneto, los jóvenes Charles Xavier (James McAvoy) y Erik Lehnsherr (Michael Fassbender) empezaban a descubrir sus poderes. No había animadversión alguna entre ellos, sino que los unía una sincera amistad y el deseo de trabajar juntos y entrenar a un grupo de jóvenes mutantes para evitar el Armagedón nuclear. Su enemigo común: el malvado Sebastian Shaw (Kevin Bacon), un mutante con el que Erik tiene una cuenta pendiente.

TRAILER

https://www.youtube.com/watch?v=frcCCHb9LHc

Datos Técnicos
Video:
MPEGH HEVC / 2160p / High Profile 5.1 / 18.2 mbps

Audio:
Español Latino / AC3 5.1/ 448 kbps / 48kHz / Bluray 4k
Inglés / DTS-HD MA/Core 5.1 / 3967/1509 kbps / 48kHz / Bluray 4k

Subs:
Español Latino / Sup / Bluray 4k
Inglés / Sup / Bluray 4k


General
Unique ID : 135550907769342721084928419749725906333 (0x65FA27BCE73BDEC66BC92859944EA59D)
Format : Matroska
Format version : Version 4 / Version 2
File size : 20.8 GiB
Duration : 2 h 11 min
Overall bit rate : 22.6 Mb/s
Encoded date : UTC 2018-04-16 12:34:48
Writing application : mkvmerge v20.0.0 ('I Am The Sun') 64-bit
Writing library : libebml v1.3.5 + libmatroska v1.4.8
Uploader : Brady
Web : www.club-hd.com

Video
ID : 1
Format : HEVC
Format/Info : High Efficiency Video Coding
Format profile : Main 10@L5.1@High
Codec ID : V_MPEGH/ISO/HEVC
Duration : 2 h 11 min
Bit rate : 18.2 Mb/s
Width : 3 840 pixels
Height : 1 632 pixels
Display aspect ratio : 2.35:1
Frame rate mode : Constant
Frame rate : 23.976 (24000/1001) FPS
Color space : YUV
Chroma subsampling : 4:2:0 (Type 2)
Bit depth : 10 bits
Bits/(Pixel*Frame) : 0.121
Stream size : 16.7 GiB (80%)
Writing library : x265 2.5+38-8a121d8cc134:[Windows][GCC 6.2.1][64 bit] 10bit
Encoding settings : cpuid=1173503 / frame-threads=4 / numa-pools=20 / wpp / no-pmode / no-pme / no-psnr / no-ssim / log-level=2 / input-csp=1 / input-res=3840x1632 / interlace=0 / total-frames=189480 / level-idc=51 / high-tier=1 / uhd-bd=0 / ref=4 / no-allow-non-conformance / repeat-headers / annexb / aud / hrd / info / hash=0 / no-temporal-layers / no-open-gop / min-keyint=1 / keyint=24 / bframes=4 / b-adapt=2 / b-pyramid / bframe-bias=0 / rc-lookahead=25 / lookahead-slices=4 / scenecut=40 / no-intra-refresh / ctu=64 / min-cu-size=8 / rect / no-amp / max-tu-size=32 / tu-inter-depth=1 / tu-intra-depth=1 / limit-tu=0 / rdoq-level=2 / dynamic-rd=0.00 / no-ssim-rd / signhide / no-tskip / nr-intra=0 / nr-inter=0 / no-constrained-intra / no-strong-intra-smoothing / max-merge=3 / limit-refs=3 / limit-modes / me=3 / subme=3 / merange=57 / temporal-mvp / weightp / no-weightb / no-analyze-src-pics / deblock=-3:-3 / no-sao / no-sao-non-deblock / rd=4 / no-early-skip / rskip / no-fast-intra / no-tskip-fast / no-cu-lossless / no-b-intra / no-splitrd-skip / rdpenalty=0 / psy-rd=2.00 / psy-rdoq=1.00 / no-rd-refine / analysis-reuse-mode=0 / no-lossless / cbqpoffs=0 / crqpoffs=0 / rc=crf / crf=19.0 / qcomp=0.60 / qpstep=4 / stats-write=0 / stats-read=0 / vbv-maxrate=160000 / vbv-bufsize=160000 / vbv-init=0.9 / crf-max=0.0 / crf-min=0.0 / ipratio=1.40 / pbratio=1.30 / aq-mode=1 / aq-strength=1.00 / cutree / zone-count=0 / no-strict-cbr / qg-size=32 / no-rc-grain / qpmax=69 / qpmin=0 / no-const-vbv / sar=1 / overscan=0 / videoformat=5 / range=0 / colorprim=9 / transfer=16 / colormatrix=9 / chromaloc=1 / chromaloc-top=2 / chromaloc-bottom=2 / display-window=0 / master-display=G(13250,34500)B(7500,3000)R(34000,16000)WP(15635,16450)L(10000000,0) / max-cll=0,0 / min-luma=0 / max-luma=1023 / log2-max-poc-lsb=8 / vui-timing-info / vui-hrd-info / slices=1 / opt-qp-pps / opt-ref-list-length-pps / no-multi-pass-opt-rps / scenecut-bias=0.05 / no-opt-cu-delta-qp / no-aq-motion / hdr / hdr-opt / no-dhdr10-opt / analysis-reuse-level=5 / scale-factor=0 / refine-intra=0 / refine-inter=0 / refine-mv=0 / no-limit-sao / ctu-info=0 / no-lowpass-dct
Language : English
Default : Yes
Forced : No
Color range : Limited
Color primaries : BT.2020
Transfer characteristics : PQ
Matrix coefficients : BT.2020 non-constant
Mastering display color primaries : Display P3
Mastering display luminance : min: 0.0000 cd/m2, max: 1000 cd/m2

Audio #1
ID : 2
Format : AC-3
Format/Info : Audio Coding 3
Codec ID : A_AC3
Duration : 2 h 11 min
Bit rate mode : Constant
Bit rate : 448 kb/s
Channel(s) : 6 channels
Channel positions : Front: L C R, Side: L R, LFE
Sampling rate : 48.0 kHz
Frame rate : 31.250 FPS (1536 SPF)
Bit depth : 16 bits
Compression mode : Lossy
Stream size : 422 MiB (2%)
Title : Latino AC3 5.1 448 kbps Bluray 4k
Language : Latin
Service kind : Complete Main
Default : Yes
Forced : No

Audio #2
ID : 3
Format : DTS
Format/Info : Digital Theater Systems
Format profile : MA / Core
Codec ID : A_DTS
Duration : 2 h 11 min
Bit rate mode : Variable / Constant
Bit rate : 3 967 kb/s / 1 509 kb/s
Channel(s) : 6 channels
Channel positions : Front: L C R, Side: L R, LFE
Sampling rate : 48.0 kHz
Frame rate : 93.750 FPS (512 SPF)
Bit depth : 24 bits
Compression mode : Lossless / Lossy
Stream size : 3.65 GiB (18%)
Title : Ingles DTS-HD MA/Core 5.1 3967/1509 kbps Bluray 4k
Language : English
Default : No
Forced : No

Text #1
ID : 4
Format : PGS
Muxing mode : zlib
Codec ID : S_HDMV/PGS
Codec ID/Info : Picture based subtitle format used on BDs/HD-DVDs
Duration : 2 h 11 min
Bit rate : 28.5 kb/s
Count of elements : 2855
Stream size : 26.9 MiB (0%)
Title : Latino
Language : Latin
Default : No
Forced : No

Text #2
ID : 5
Format : PGS
Muxing mode : zlib
Codec ID : S_HDMV/PGS
Codec ID/Info : Picture based subtitle format used on BDs/HD-DVDs
Duration : 2 h 11 min
Bit rate : 28.6 kb/s
Count of elements : 2823
Stream size : 27.0 MiB (0%)
Title : Ingles
Language : English
Default : No
Forced : No



http://i.picasion.com/resize86/9844545824b3026d793bc689d2ca154c.jpg

https://3.bp.blogspot.com/-kZSwW6_5w-U/WtSREGMXJrI/AAAAAAAADFM/IYNms_tHTqcrJeGrdd_cNQECaq1pWD43QCLcBGAs/s1600/1.png

https://1.bp.blogspot.com/-6ZtbuLYxkuk/WtSRJPm_AyI/AAAAAAAADF4/bg4o0kc9eTABsayAE39RReVNL88AMsQWwCLcBGAs/s1600/2.png

https://4.bp.blogspot.com/-fluk4T9g7cA/WtSRKiCHzlI/AAAAAAAADGA/4sg3A3rVALAYp0FfPbdCP0OfxOIlXa6dwCLcBGAs/s1600/3.png

https://3.bp.blogspot.com/-l0KtrEPXfYw/WtSRK1WlXqI/AAAAAAAADGE/23CtuoK-dGk5Dv4raXFhAbTMhJOLESdlACLcBGAs/s1600/4.png

https://4.bp.blogspot.com/-hC2tlsjpTIU/WtSRLk9ZT_I/AAAAAAAADGI/GjnZoIx0SGIgl-MRs-qVnyj1a-dPsw6XgCLcBGAs/s1600/5.png

DESCARGA


Links Intercambiables

https://3.bp.blogspot.com/-n3vyYws6udw/WYitgMOaduI/AAAAAAAA1L0/PE1jBg4l_7I2Cp9SjlekwnTQbXZwrQo3wCLcBGAs/s1600/1FICHIER-BANNER.png
**Hidden Content: Check the thread to see hidden data.**

http://2.bp.blogspot.com/-nXtN7MPZ_A8/VZab6hvUJRI/AAAAAAAAsNY/1VAgQ63UKOQ/s1600/MEGA-BANNER.png
**Hidden Content: Check the thread to see hidden data.**

http://3.bp.blogspot.com/-Yh5P3OSnxaQ/UOkNsmy5n6I/AAAAAAAAFG8/J9B4jZodRqM/s1600/UPLOADED_BANNER.png
**Hidden Content: Check the thread to see hidden data.**

https://1.bp.blogspot.com/-PE8m5kK7vYo/WJoNpVnuMnI/AAAAAAAA0go/jTlWOR0KOCEoUUzcNlzAqSRBkzh8nRT4QCLcB/s1600/OPENLOAD.png
**Hidden Content: Check the thread to see hidden data.**

https://4.bp.blogspot.com/-qqShfCTogHE/WaxnWvr1vHI/AAAAAAAAAL0/aTU3k5gHeNYqWMWsFEdXHF722AwHK0bewCLcBGAs/s1600/contrase%25C3%25B1a%2Bclub%2Bhd.jpg




www.club-hd.com

Josiba
18/04/2018, 10:35
Desc_g_

flujo
18/04/2018, 12:43
gracias

PATRICIOG
18/04/2018, 13:29
Desc_g_

consuelobarturen
18/04/2018, 14:06
graciasssssss

JCAvila
18/04/2018, 15:33
gracias!

Ferosito2129
18/04/2018, 16:51
super pelicula... gracias

Gibraine
19/04/2018, 01:14
grcias!

novatoxp
19/04/2018, 01:34
Desc_g_

cripp
19/04/2018, 15:21
Gracias por compartir

SAAEDVI
19/04/2018, 20:36
me gusta

joelmax18
20/04/2018, 01:57
gracias

tsubasa100
20/04/2018, 20:24
gracias

juniorgarabo
20/04/2018, 20:56
Desc_g_

costafede
21/04/2018, 11:05
e-pec-tacular!

cpola
21/04/2018, 16:35
Gracias

mathiasfx
21/04/2018, 22:50
Gracias por el 4k

sosalexfame
23/04/2018, 03:45
gracias

fewac
26/04/2018, 14:08
Gracias!!!

ecuavideos
29/04/2018, 23:46
gracias

Genji
02/05/2018, 10:52
¡¡¡Mil gracias!!! :pulgar2:
Desc_g_

frankarter
05/05/2018, 20:25
Desc_g_

dastan84
07/05/2018, 17:59
gracias

ismar360
09/05/2018, 03:12
Desc_g_

xikoh99
20/05/2018, 16:19
Desc_g_