PDA

Ver la versión completa : xXx: Return Of Xander Cage (2017) 2160p 4k UHD HDR Dual Latino-Inglés [Subt. Esp] (Acción. Aventuras)



Brady
14/04/2018, 16:26
https://3.bp.blogspot.com/-Ia9BBv18hRI/WtGZzOb7TmI/AAAAAAAADCY/e0bfz0SJ0nUz_x96kv5QSvUrTSHuiPmGQCLcBGAs/s1600/Cage.jpg


https://1.bp.blogspot.com/-s6PuW6TawPg/WaxnWg-5pPI/AAAAAAAAALs/OMh7vMt1tkAKRT8kSue_zxgG64KJ0Ss1ACLcBGAs/s1600/ficha%2Btecnica%2Bclub.jpg



Título Original: xXx: Return Of Xander Cage
Año: 2017
Duración: 107 min.
País: https://www.filmaffinity.com/imgs/countries/US.jpg United States
Director: D.J. Caruso
Guion: F. Scott Frazier (Personajes: Rich Wilkes)
Reparto: Vin Diesel, Deepika Padukone, Donnie Yen, Toni Collette, Nina Dobrev, Ruby Rose, Kris Wu, Rory McCann, Tony Jaa, Michael Bisping, Al Sapienza, Samuel L. Jackson, Ice Cube, Neymar Jr., Nicky Jam, Andrey Ivchenko, Ariadna Gutiérrez-Arévalo, Hermione Corfield, Tony Gonzalez, Tommy James Murphy
Productora: Paramount Pictures / Revolution Studios
Género: Acción. Aventuras. Thriller | Secuela


SINOPSIS
Cuando un grupo de mercenarios roban un arma de alta tecnología que supone una amenaza global, el mundo necesita al super espía Xander Cage (Diesel). Reclutado de nuevo, Xander lidera un equipo de defensores de la muerte adictos a la adrenalina, en una misión para salvar el mundo.

TRAILER

https://www.youtube.com/watch?v=bfqT7Cgn6ZI

Datos Técnicos
Video:
MPEGH HEVC / 2160p / High Profile 5.1 / 22.5 mbps

Audio:
Español Latino / AC3 5.1/ 640 kbps / 48kHz / Bluray 4k
Inglés / TrueHD/Atmos 7.1 / 5703/8961 kbps / 48kHz / Bluray 4k
Inglés / AC3 5.1 / 640 kbps / 48kHz / Bluray 4k

Subs:
Español Latino / SubRip / Bluray 4k
Español Latino Forzados / SubRip / Bluray 4k
Español Latino / Sup / Bluray 4k
Español Latino Forzados / Sup / Bluray 4k
Inglés / Sup / Bluray 4k


General
Unique ID : 80388315764917180828915790344046474180 (0x3C7A39F8B23267B60DE5DB04068F73C4)
Format : Matroska
Format version : Version 4 / Version 2
File size : 22.1 GiB
Duration : 1 h 46 min
Overall bit rate mode : Variable
Overall bit rate : 29.6 Mb/s
Encoded date : UTC 2018-04-14 02:25:54
Writing application : mkvmerge v20.0.0 ('I Am The Sun') 64-bit
Writing library : libebml v1.3.5 + libmatroska v1.4.8
Uploader : Brady
Web : www.club-hd.com

Video
ID : 1
Format : HEVC
Format/Info : High Efficiency Video Coding
Format profile : Main 10@L5.1@High
Codec ID : V_MPEGH/ISO/HEVC
Duration : 1 h 46 min
Bit rate : 22.5 Mb/s
Width : 3 840 pixels
Height : 1 600 pixels
Display aspect ratio : 2.40:1
Frame rate mode : Constant
Frame rate : 23.976 (24000/1001) FPS
Color space : YUV
Chroma subsampling : 4:2:0 (Type 2)
Bit depth : 10 bits
Bits/(Pixel*Frame) : 0.153
Stream size : 16.8 GiB (76%)
Writing library : x265 2.6+4-f7498acb3874:[Windows][GCC 7.2.0][64 bit] 10bit
Encoding settings : cpuid=1049087 / frame-threads=4 / numa-pools=12,12 / wpp / no-pmode / no-pme / no-psnr / no-ssim / log-level=2 / input-csp=1 / input-res=3840x1600 / interlace=0 / total-frames=153578 / level-idc=51 / high-tier=1 / uhd-bd=0 / ref=4 / no-allow-non-conformance / repeat-headers / annexb / aud / hrd / info / hash=0 / no-temporal-layers / no-open-gop / min-keyint=24 / keyint=240 / bframes=4 / b-adapt=2 / b-pyramid / bframe-bias=0 / rc-lookahead=25 / lookahead-slices=4 / scenecut=40 / no-intra-refresh / ctu=64 / min-cu-size=8 / rect / no-amp / max-tu-size=32 / tu-inter-depth=1 / tu-intra-depth=1 / limit-tu=0 / rdoq-level=2 / dynamic-rd=0.00 / no-ssim-rd / signhide / no-tskip / nr-intra=0 / nr-inter=0 / no-constrained-intra / no-strong-intra-smoothing / max-merge=3 / limit-refs=3 / limit-modes / me=3 / subme=3 / merange=57 / temporal-mvp / weightp / no-weightb / no-analyze-src-pics / deblock=-3:-3 / no-sao / no-sao-non-deblock / rd=4 / no-early-skip / rskip / no-fast-intra / no-tskip-fast / no-cu-lossless / no-b-intra / no-splitrd-skip / rdpenalty=0 / psy-rd=2.00 / psy-rdoq=1.00 / no-rd-refine / analysis-reuse-mode=0 / no-lossless / cbqpoffs=0 / crqpoffs=0 / rc=crf / crf=17.0 / qcomp=0.60 / qpstep=4 / stats-write=0 / stats-read=0 / vbv-maxrate=160000 / vbv-bufsize=160000 / vbv-init=0.9 / crf-max=0.0 / crf-min=0.0 / ipratio=1.40 / pbratio=1.30 / aq-mode=1 / aq-strength=1.00 / cutree / zone-count=0 / no-strict-cbr / qg-size=32 / no-rc-grain / qpmax=69 / qpmin=0 / no-const-vbv / sar=1 / overscan=0 / videoformat=5 / range=0 / colorprim=9 / transfer=16 / colormatrix=9 / chromaloc=1 / chromaloc-top=2 / chromaloc-bottom=2 / display-window=0 / master-display=G(13250,34500)B(7500,3000)R(34000,16000)WP(15635,16450)L(10000000,50) / max-cll=0,0 / min-luma=0 / max-luma=1023 / log2-max-poc-lsb=8 / vui-timing-info / vui-hrd-info / slices=1 / opt-qp-pps / opt-ref-list-length-pps / no-multi-pass-opt-rps / scenecut-bias=0.05 / no-opt-cu-delta-qp / no-aq-motion / hdr / hdr-opt / no-dhdr10-opt / analysis-reuse-level=5 / scale-factor=0 / refine-intra=0 / refine-inter=0 / refine-mv=0 / no-limit-sao / ctu-info=0 / no-lowpass-dct / refine-mv-type=0 / copy-pic=1
Language : English
Default : Yes
Forced : No
Color range : Limited
Color primaries : BT.2020
Transfer characteristics : PQ
Matrix coefficients : BT.2020 non-constant
Mastering display color primaries : Display P3
Mastering display luminance : min: 0.0050 cd/m2, max: 1000 cd/m2

Audio #1
ID : 2
Format : AC-3
Format/Info : Audio Coding 3
Codec ID : A_AC3
Duration : 1 h 46 min
Bit rate mode : Constant
Bit rate : 640 kb/s
Channel(s) : 6 channels
Channel positions : Front: L C R, Side: L R, LFE
Sampling rate : 48.0 kHz
Frame rate : 31.250 FPS (1536 SPF)
Bit depth : 16 bits
Compression mode : Lossy
Stream size : 489 MiB (2%)
Title : Latino AC3 5.1 640 kbps Bluray 4k
Language : Latin
Service kind : Complete Main
Default : Yes
Forced : No

Audio #2
ID : 3
Format : TrueHD
Format profile : TrueHD+Atmos / TrueHD
Codec ID : A_TRUEHD
Duration : 1 h 46 min
Bit rate mode : Variable
Bit rate : 5 703 kb/s
Maximum bit rate : 8 961 kb/s
Channel(s) : Object Based / 8 channels
Channel positions : Object Based / Front: L C R, Side: L R, Back: L R, LFE
Sampling rate : / 48.0 kHz
Frame rate : 1 200.000 FPS (40 SPF)
Compression mode : Lossless
Stream size : 4.25 GiB (19%)
Title : Ingles TrueHD/Atmos 7.1 8961 kbps Bluray 4k
Language : English
Default : No
Forced : No

Audio #3
ID : 4
Format : AC-3
Format/Info : Audio Coding 3
Codec ID : A_AC3
Duration : 1 h 46 min
Bit rate mode : Constant
Bit rate : 640 kb/s
Channel(s) : 6 channels
Channel positions : Front: L C R, Side: L R, LFE
Sampling rate : 48.0 kHz
Frame rate : 31.250 FPS (1536 SPF)
Bit depth : 16 bits
Compression mode : Lossy
Stream size : 489 MiB (2%)
Title : Ingles AC3 5.1 640 kbps Bluray 4k
Language : English
Service kind : Complete Main
Default : No
Forced : No

Text #1
ID : 5
Format : UTF-8
Codec ID : S_TEXT/UTF8
Codec ID/Info : UTF-8 Plain Text
Duration : 1 h 36 min
Bit rate : 47 b/s
Count of elements : 990
Stream size : 33.2 KiB (0%)
Title : Latino
Language : Latin
Default : No
Forced : No

Text #2
ID : 6
Format : UTF-8
Codec ID : S_TEXT/UTF8
Codec ID/Info : UTF-8 Plain Text
Duration : 1 h 24 min
Bit rate : 1 b/s
Count of elements : 37
Stream size : 1.22 KiB (0%)
Title : Latino
Language : Latin
Default : No
Forced : No

Text #3
ID : 7
Format : PGS
Muxing mode : zlib
Codec ID : S_HDMV/PGS
Codec ID/Info : Picture based subtitle format used on BDs/HD-DVDs
Duration : 1 h 36 min
Bit rate : 29.6 kb/s
Count of elements : 1991
Stream size : 20.4 MiB (0%)
Title : Forzados
Language : Latin
Default : Yes
Forced : No

Text #4
ID : 8
Format : PGS
Muxing mode : zlib
Codec ID : S_HDMV/PGS
Codec ID/Info : Picture based subtitle format used on BDs/HD-DVDs
Duration : 1 h 36 min
Bit rate : 30.7 kb/s
Count of elements : 2259
Stream size : 21.1 MiB (0%)
Title : Ingles
Language : English
Default : No
Forced : No



http://i.picasion.com/resize86/9844545824b3026d793bc689d2ca154c.jpg

https://4.bp.blogspot.com/-weU9VrXRp6Y/WtHGeDv8N4I/AAAAAAAADDc/pH5LI-4zHLwnh38ICw-jFEjaCRzKRwclgCLcBGAs/s1600/6.png

https://1.bp.blogspot.com/-owCTlQrjf-g/WtHGfIFey4I/AAAAAAAADDg/E4ON2baTSr4VmMy2dhyZL1PTByiHI4I_QCLcBGAs/s1600/7.png

https://2.bp.blogspot.com/-JJjQqE6nKg4/WtHGfS1H3AI/AAAAAAAADDk/15gSrn2yG6scTdsI5v0MfZ63n3kWhhiUgCLcBGAs/s1600/8.png

https://1.bp.blogspot.com/-s7QBHkq3CpM/WtHGfbKNr3I/AAAAAAAADDo/wWdfv3P3JGwAHoA9DcXvFa9v8Fb16vTWwCLcBGAs/s1600/9.png

https://4.bp.blogspot.com/-Pvab0AtIlrY/WtHGYeEpJ9I/AAAAAAAADC0/yGzDsz4udeAu2Cbv5bs8NQGE3Ry56cu4wCLcBGAs/s1600/10.png

DESCARGA


Links Intercambiables

https://3.bp.blogspot.com/-n3vyYws6udw/WYitgMOaduI/AAAAAAAA1L0/PE1jBg4l_7I2Cp9SjlekwnTQbXZwrQo3wCLcBGAs/s1600/1FICHIER-BANNER.png
**Hidden Content: Check the thread to see hidden data.**

http://2.bp.blogspot.com/-nXtN7MPZ_A8/VZab6hvUJRI/AAAAAAAAsNY/1VAgQ63UKOQ/s1600/MEGA-BANNER.png
**Hidden Content: Check the thread to see hidden data.**

http://3.bp.blogspot.com/-Yh5P3OSnxaQ/UOkNsmy5n6I/AAAAAAAAFG8/J9B4jZodRqM/s1600/UPLOADED_BANNER.png
**Hidden Content: Check the thread to see hidden data.**

https://1.bp.blogspot.com/-PE8m5kK7vYo/WJoNpVnuMnI/AAAAAAAA0go/jTlWOR0KOCEoUUzcNlzAqSRBkzh8nRT4QCLcB/s1600/OPENLOAD.png
**Hidden Content: Check the thread to see hidden data.**

https://4.bp.blogspot.com/-qqShfCTogHE/WaxnWvr1vHI/AAAAAAAAAL0/aTU3k5gHeNYqWMWsFEdXHF722AwHK0bewCLcBGAs/s1600/contrase%25C3%25B1a%2Bclub%2Bhd.jpg




www.club-hd.com

c2mito
14/04/2018, 16:54
muchas gracias!

virus619
14/04/2018, 17:23
Desc_g_

Josiba
14/04/2018, 17:26
Desc_g_

kalipitter
14/04/2018, 19:33
Gracias otra vez

juniorgarabo
14/04/2018, 19:33
Desc_g_

cpola
14/04/2018, 20:49
Gracias

novatoxp
14/04/2018, 22:01
Desc_g_

flujo
14/04/2018, 23:13
gracias

videma
15/04/2018, 00:03
gracias

vhrod
15/04/2018, 02:37
Desc_g_

KmL63
15/04/2018, 10:43
Gracias.......................

samuelabad
15/04/2018, 11:44
Gracias

carlos2018
15/04/2018, 14:11
Gracias

SAAEDVI
15/04/2018, 17:23
me gusta

mathiasfx
15/04/2018, 22:08
gracias capo

JCAvila
16/04/2018, 05:19
gracias!

cripp
16/04/2018, 13:27
Gracias por compartir

PATRICIOG
16/04/2018, 14:00
Desc_g_

joelmax18
17/04/2018, 11:14
gracias

LANINADULCE
20/04/2018, 02:54
Desc_g_

ramses
26/04/2018, 15:02
Desc_g_

fewac
26/04/2018, 21:23
Gracias!!!

ecuavideos
04/05/2018, 12:42
gracias

Chris2000
10/05/2018, 23:35
Gracias :doble:

iori_2700
15/05/2018, 22:24
Desc_g_

spamthiss
22/05/2018, 02:58
Gracias