PDA

Ver la versión completa : Pitch Perfect 2 (2015) 2160p 4k UHD HDR Dual Latino-Inglés [Subt. Esp] (Comedia. Secuela)



Brady
27/03/2018, 01:35
https://1.bp.blogspot.com/--2OPeTxM_F4/WrmNtSPPoWI/AAAAAAAAC1Y/aBmBESODPKYF8UlDhxvMkidtaDcl72DywCLcBGAs/s1600/Pi2.jpg


https://1.bp.blogspot.com/-s6PuW6TawPg/WaxnWg-5pPI/AAAAAAAAALs/OMh7vMt1tkAKRT8kSue_zxgG64KJ0Ss1ACLcBGAs/s1600/ficha%2Btecnica%2Bclub.jpg



Título Original: Pitch Perfect 2
Año: 2015
Duración: 115 min.
País: https://www.filmaffinity.com/imgs/countries/US.jpg United States
Director: Elizabeth Banks
Guion: Kay Cannon (Libro: Mickey Rapkin)
Reparto: Anna Kendrick, Brittany Snow, Hailee Steinfeld, Rebel Wilson, Anna Camp, Skylar Astin, Ben Platt, Elizabeth Banks, Adam DeVine, John Michael Higgins, Alexis Knapp, Hana Mae Lee, Kelley Jakle, Karen Gonzalez, Katey Sagal, Brea Grant, Shelley Regner, Kristin McKenzie, Leticia Jimenez, Jodi Lyn Brockton
Productora: Brownstone Productions / Gold Circle Films / Universal Pictures
Género: Comedia | Música. Baile. Colegios & Universidad. Secuela


SINOPSIS
Secuela de "Dando la nota" (2012). Beca y Fat Amy se enfrentan a su último año en la universidad. Las Barden Bellas se han convertido en el coro a capella más importante y envidiado del campus y competirá en el Campeonato mundial de Coros, donde el equipo estadounidense nunca ha ganado.

TRAILER

https://www.youtube.com/watch?v=o8MOCV9uvBk

Datos Técnicos
Video:
MPEGH HEVC / 2160p / High Profile 5.1 / 15.0 mbps

Audio:
Español Latino / DTS 5.1/ 768 kbps / 48kHz / Bluray 4k
Inglés / DTS-HD X/MA/Core 7.1/5.1 / 6586/6586/1509 kbps / 48kHz / Bluray 4k

Subs:
Español Latino / Sup / Bluray 4k
Español Latino Forzados / Sup / Bluray 4k
Inglés / Sup / Bluray 4k


General
Unique ID : 8225777029923554189775784545391316124 (0x6303A1E9FA0CA4B628C90B5685D8C9C)
Format : Matroska
Format version : Version 4 / Version 2
File size : 17.9 GiB
Duration : 1 h 54 min
Overall bit rate : 22.3 Mb/s
Encoded date : UTC 2018-03-24 21:02:56
Writing application : mkvmerge v20.0.0 ('I Am The Sun') 64-bit
Writing library : libebml v1.3.5 + libmatroska v1.4.8
Uploader : Brady
Web : www.club-hd.com

Video
ID : 1
Format : HEVC
Format/Info : High Efficiency Video Coding
Format profile : Main 10@L5.1@High
Codec ID : V_MPEGH/ISO/HEVC
Duration : 1 h 54 min
Bit rate : 15.0 Mb/s
Width : 3 840 pixels
Height : 2 076 pixels
Display aspect ratio : 1.85:1
Frame rate mode : Constant
Frame rate : 23.976 (24000/1001) FPS
Color space : YUV
Chroma subsampling : 4:2:0 (Type 2)
Bit depth : 10 bits
Bits/(Pixel*Frame) : 0.078
Stream size : 12.0 GiB (67%)
Writing library : x265 2.7+15-b9f5b5d7bf95:[Windows][GCC 6.3.0][64 bit] 10bit
Encoding settings : cpuid=1173503 / frame-threads=6 / numa-pools=16,16 / wpp / no-pmode / no-pme / no-psnr / no-ssim / log-level=2 / input-csp=1 / input-res=3840x2076 / interlace=0 / total-frames=164977 / level-idc=51 / high-tier=1 / uhd-bd=0 / ref=4 / no-allow-non-conformance / repeat-headers / annexb / aud / hrd / info / hash=0 / no-temporal-layers / no-open-gop / min-keyint=24 / keyint=240 / gop-lookahead=0 / bframes=4 / b-adapt=2 / b-pyramid / bframe-bias=0 / rc-lookahead=25 / lookahead-slices=4 / scenecut=40 / radl=0 / no-intra-refresh / ctu=64 / min-cu-size=8 / rect / no-amp / max-tu-size=32 / tu-inter-depth=1 / tu-intra-depth=1 / limit-tu=0 / rdoq-level=2 / dynamic-rd=0.00 / no-ssim-rd / signhide / no-tskip / nr-intra=0 / nr-inter=0 / no-constrained-intra / no-strong-intra-smoothing / max-merge=3 / limit-refs=3 / limit-modes / me=3 / subme=3 / merange=57 / temporal-mvp / weightp / no-weightb / no-analyze-src-pics / deblock=-3:-3 / no-sao / no-sao-non-deblock / rd=4 / no-early-skip / rskip / no-fast-intra / no-tskip-fast / no-cu-lossless / no-b-intra / no-splitrd-skip / rdpenalty=0 / psy-rd=2.00 / psy-rdoq=1.00 / no-rd-refine / no-lossless / cbqpoffs=0 / crqpoffs=0 / rc=crf / crf=17.0 / qcomp=0.60 / qpstep=4 / stats-write=0 / stats-read=0 / vbv-maxrate=160000 / vbv-bufsize=160000 / vbv-init=0.9 / crf-max=0.0 / crf-min=0.0 / ipratio=1.40 / pbratio=1.30 / aq-mode=1 / aq-strength=1.00 / cutree / zone-count=0 / no-strict-cbr / qg-size=32 / no-rc-grain / qpmax=69 / qpmin=0 / no-const-vbv / sar=1 / overscan=0 / videoformat=5 / range=0 / colorprim=9 / transfer=16 / colormatrix=9 / chromaloc=1 / chromaloc-top=2 / chromaloc-bottom=2 / display-window=0 / master-display=G(13250,34500)B(7500,3000)R(34000,16000)WP(15635,16450)L(10000000,50) / max-cll=972,302 / min-luma=0 / max-luma=1023 / log2-max-poc-lsb=8 / vui-timing-info / vui-hrd-info / slices=1 / opt-qp-pps / opt-ref-list-length-pps / no-multi-pass-opt-rps / scenecut-bias=0.05 / no-opt-cu-delta-qp / no-aq-motion / hdr / hdr-opt / no-dhdr10-opt / no-idr-recovery-sei / analysis-reuse-level=5 / scale-factor=0 / refine-intra=0 / refine-inter=0 / refine-mv=0 / no-limit-sao / ctu-info=0 / no-lowpass-dct / refine-mv-type=0 / copy-pic=1 / max-ausize-factor=1.0 / no-dynamic-refine
Language : English
Default : Yes
Forced : No
Color range : Limited
Color primaries : BT.2020
Transfer characteristics : PQ
Matrix coefficients : BT.2020 non-constant
Mastering display color primaries : Display P3
Mastering display luminance : min: 0.0050 cd/m2, max: 1000 cd/m2
Maximum Content Light Level : 972 cd/m2
Maximum Frame-Average Light Level : 302 cd/m2

Audio #1
ID : 2
Format : DTS
Format/Info : Digital Theater Systems
Codec ID : A_DTS
Duration : 1 h 54 min
Bit rate mode : Constant
Bit rate : 768 kb/s
Channel(s) : 6 channels
Channel positions : Front: L C R, Side: L R, LFE
Sampling rate : 48.0 kHz
Frame rate : 93.750 FPS (512 SPF)
Bit depth : 24 bits
Compression mode : Lossy
Stream size : 630 MiB (3%)
Title : Latino DTS 5.1 768 kbps Bluray 4k
Language : Latin
Default : Yes
Forced : No

Audio #2
ID : 3
Format : DTS
Format/Info : Digital Theater Systems
Format profile : X / MA / Core
Codec ID : A_DTS
Duration : 1 h 54 min
Bit rate mode : Variable / Variable / Constant
Bit rate : 6 586 kb/s / 6 586 kb/s / 1 509 kb/s
Channel(s) : Object Based / 8 channels / 6 channels
Channel positions : Object Based / Front: L C R, Side: L R, Back: L R, LFE / Front: L C R, Side: L R, LFE
Sampling rate : / 48.0 kHz / 48.0 kHz
Frame rate : 93.750 FPS (512 SPF)
Bit depth : / 24 bits / 24 bits
Compression mode : / Lossless / Lossy
Stream size : 5.28 GiB (29%)
Title : Ingles DTS -HD X/MA/Core 7.1/5.1 1509 kbps Bluray 4k
Language : English
Default : No
Forced : No

Text #1
ID : 4
Format : PGS
Muxing mode : zlib
Codec ID : S_HDMV/PGS
Codec ID/Info : Picture based subtitle format used on BDs/HD-DVDs
Duration : 1 h 49 min
Bit rate : 41.0 kb/s
Count of elements : 3600
Stream size : 32.2 MiB (0%)
Title : Latino
Language : Latin
Default : No
Forced : No

Text #2
ID : 5
Format : PGS
Muxing mode : zlib
Codec ID : S_HDMV/PGS
Codec ID/Info : Picture based subtitle format used on BDs/HD-DVDs
Duration : 1 h 39 min
Bit rate : 2 758 b/s
Count of elements : 184
Stream size : 1.96 MiB (0%)
Title : Forzados
Language : Latin
Default : Yes
Forced : No

Text #3
ID : 6
Format : PGS
Muxing mode : zlib
Codec ID : S_HDMV/PGS
Codec ID/Info : Picture based subtitle format used on BDs/HD-DVDs
Duration : 1 h 50 min
Bit rate : 52.7 kb/s
Count of elements : 4138
Stream size : 41.6 MiB (0%)
Title : Ingles
Language : English
Default : No
Forced : No



http://i.picasion.com/resize86/9844545824b3026d793bc689d2ca154c.jpg

https://2.bp.blogspot.com/-rwlTTZqN3As/WrmKdUp3lhI/AAAAAAAAC0Y/-gtx2aCqOJAgVmTStzScHkGxTzl7gJzbgCLcBGAs/s1600/6.png

https://3.bp.blogspot.com/-HlIXfhtghpI/WrmKd7AnReI/AAAAAAAAC0g/KhD6Zbr5qu4XVEi0sJUxwc-6SWVA9_uTwCLcBGAs/s1600/7.png

https://2.bp.blogspot.com/-1qpdivvzjm4/WrmKd9UfW2I/AAAAAAAAC0c/s0OkLUR3eR8NVQdh-lUHMEiVJ7cgtqTxwCLcBGAs/s1600/8.png

https://3.bp.blogspot.com/-kKnr7JSt7LA/WrmKe80F__I/AAAAAAAAC0k/hzgQ-_bnkGgJ83G-M872Wqb3RyPnx_7vgCLcBGAs/s1600/9.png

https://1.bp.blogspot.com/-4U8xHIEfkUY/WrmKVK9jKdI/AAAAAAAACzg/WRAdlidgzK0wshxO5zyiOuotmSRREmwIgCLcBGAs/s1600/10.png

DESCARGA


Links Intercambiables

https://3.bp.blogspot.com/-n3vyYws6udw/WYitgMOaduI/AAAAAAAA1L0/PE1jBg4l_7I2Cp9SjlekwnTQbXZwrQo3wCLcBGAs/s1600/1FICHIER-BANNER.png
**Hidden Content: Check the thread to see hidden data.**

http://2.bp.blogspot.com/-nXtN7MPZ_A8/VZab6hvUJRI/AAAAAAAAsNY/1VAgQ63UKOQ/s1600/MEGA-BANNER.png
**Hidden Content: Check the thread to see hidden data.**

http://3.bp.blogspot.com/-Yh5P3OSnxaQ/UOkNsmy5n6I/AAAAAAAAFG8/J9B4jZodRqM/s1600/UPLOADED_BANNER.png
**Hidden Content: Check the thread to see hidden data.**

https://1.bp.blogspot.com/-PE8m5kK7vYo/WJoNpVnuMnI/AAAAAAAA0go/jTlWOR0KOCEoUUzcNlzAqSRBkzh8nRT4QCLcB/s1600/OPENLOAD.png
**Hidden Content: Check the thread to see hidden data.**

https://4.bp.blogspot.com/-qqShfCTogHE/WaxnWvr1vHI/AAAAAAAAAL0/aTU3k5gHeNYqWMWsFEdXHF722AwHK0bewCLcBGAs/s1600/contrase%25C3%25B1a%2Bclub%2Bhd.jpg




www.club-hd.com

Josiba
27/03/2018, 07:05
Desc_g_

tsubasa100
27/03/2018, 10:51
gracias

flujo
27/03/2018, 13:04
gracias

JCAvila
27/03/2018, 14:19
gracias!

virus619
27/03/2018, 19:20
Desc_g_

PATRICIOG
27/03/2018, 19:52
Desc_g_

Andreslvl
27/03/2018, 20:23
Desc_g_

LANINADULCE
28/03/2018, 16:10
Desc_g_

juniorgarabo
30/03/2018, 14:18
Desc_g_

ernestozubieta
30/03/2018, 16:07
gracias

BEADVAPE
31/03/2018, 13:24
Muchas Gracias, SALUDOS, Desc_g_:p3sc:

novatoxp
31/03/2018, 15:38
Desc_g_

muruagam
01/04/2018, 09:29
Desc_g_

cripp
02/04/2018, 12:51
Gracias por compartir

fewac
03/04/2018, 02:02
Gracias!!!

reneelias
08/04/2018, 09:45
muchas gracias

joelmax18
09/04/2018, 21:08
gracias

consuelobarturen
10/04/2018, 13:53
graciasssssss

ERRE
17/04/2018, 16:09
Gracias...thank_you2

ecuavideos
22/06/2018, 12:02
gracias

gabrielx5
24/07/2018, 06:08
gracias

Prem1er
16/08/2018, 03:29
gracias por el aporte!!!