PDA

Ver la versión completa : Daddy's Home 2 (2017) 2160p 4k UHD HDR Dual Latino-Inglés [Subt. Esp] (Comedia. Secuela)



Brady
23/03/2018, 19:38
https://3.bp.blogspot.com/-vkc7MxDM4gY/WrViJjvZt6I/AAAAAAAACws/_PvnuOLKtSw0VTwnI2XanlBdgxm_NbDnQCLcBGAs/s1600/dad2.jpg


https://1.bp.blogspot.com/-s6PuW6TawPg/WaxnWg-5pPI/AAAAAAAAALs/OMh7vMt1tkAKRT8kSue_zxgG64KJ0Ss1ACLcBGAs/s1600/ficha%2Btecnica%2Bclub.jpg



Título Original: Daddy's Home 2
Año: 2017
Duración: 100 min.
País: https://www.filmaffinity.com/imgs/countries/US.jpg United States
Director: Sean Anders
Guion: Sean Anders, John Morris (Personaje: Brian Burns)
Reparto: Will Ferrell, Mark Wahlberg, Mel Gibson, John Lithgow, Linda Cardellini, Scarlett Estevez, Owen Vaccaro, John Cena, Susan Garibotto
Productora: Gary Sanchez Productions / Paramount Pictures / Huahua Media
Género: Comedia | Secuela. Navidad


SINOPSIS
Dusty (Mark Wahlberg) y Brad (Will Ferrell) se han unido para ofrecerle a sus hijos la Navidad perfecta. Este nuevo equipo se pone a prueba cuando el papá gruñón de Dusty (Mel Gibson) y el papá ultra cariñoso y tierno de Brad (John Lithgow) llegan para convertir a las vacaciones decembrinas en un completo caos. Secuela de "Padres por desigual".

TRAILER

https://www.youtube.com/watch?v=FRAMEmiUOvY

Datos Técnicos
Video:
MPEGH HEVC / 2160p / High Profile 5.1 / 28.0 mbps

Audio:
Español Latino / AC3 5.1/ 640 kbps / 48kHz / Bluray 4k
Inglés / TrueHD/Atmos 7.1 / 4576/7641 kbps / 48kHz / Bluray 4k
Inglés / AC3 5.1 / 640 kbps / 48kHz / Bluray 4k

Subs:
Español Latino / Sup / Bluray 4k
Inglés / Sup / Bluray 4k


General
Unique ID : 271490977665344807293000154749296433635 (0xCC3F42A6682045E446DA8EB700ABD9E3)
Format : Matroska
Format version : Version 4 / Version 2
File size : 23.6 GiB
Duration : 1 h 39 min
Overall bit rate mode : Variable
Overall bit rate : 33.9 Mb/s
Encoded date : UTC 2018-03-23 04:27:19
Writing application : mkvmerge v20.0.0 ('I Am The Sun') 64-bit
Writing library : libebml v1.3.5 + libmatroska v1.4.8
Uploader : Brady
Web : www.club-hd.com

Video
ID : 1
Format : HEVC
Format/Info : High Efficiency Video Coding
Format profile : Main 10@L5.1@High
Codec ID : V_MPEGH/ISO/HEVC
Duration : 1 h 39 min
Bit rate : 28.0 Mb/s
Width : 3 840 pixels
Height : 2 160 pixels
Display aspect ratio : 16:9
Frame rate mode : Constant
Frame rate : 23.976 (24000/1001) FPS
Color space : YUV
Chroma subsampling : 4:2:0 (Type 2)
Bit depth : 10 bits
Bits/(Pixel*Frame) : 0.141
Stream size : 19.5 GiB (82%)
Writing library : x265 2.6+33-193c2b20b0d8:[Windows][GCC 6.3.0][64 bit] 10bit
Encoding settings : cpuid=1173503 / frame-threads=4 / numa-pools=20 / wpp / no-pmode / no-pme / no-psnr / no-ssim / log-level=2 / input-csp=1 / input-res=3840x2160 / interlace=0 / total-frames=143427 / level-idc=51 / high-tier=1 / uhd-bd=1 / ref=4 / no-allow-non-conformance / repeat-headers / annexb / aud / hrd / info / hash=0 / no-temporal-layers / no-open-gop / min-keyint=1 / keyint=24 / gop-lookahead=0 / bframes=4 / b-adapt=2 / b-pyramid / bframe-bias=0 / rc-lookahead=25 / lookahead-slices=4 / scenecut=40 / radl=0 / no-intra-refresh / ctu=64 / min-cu-size=8 / rect / no-amp / max-tu-size=32 / tu-inter-depth=1 / tu-intra-depth=1 / limit-tu=0 / rdoq-level=2 / dynamic-rd=0.00 / no-ssim-rd / signhide / no-tskip / nr-intra=0 / nr-inter=0 / no-constrained-intra / no-strong-intra-smoothing / max-merge=3 / limit-refs=3 / limit-modes / me=3 / subme=3 / merange=57 / temporal-mvp / weightp / no-weightb / no-analyze-src-pics / deblock=-3:-3 / no-sao / no-sao-non-deblock / rd=4 / no-early-skip / rskip / no-fast-intra / no-tskip-fast / no-cu-lossless / no-b-intra / no-splitrd-skip / rdpenalty=0 / psy-rd=2.00 / psy-rdoq=1.00 / no-rd-refine / no-lossless / cbqpoffs=0 / crqpoffs=0 / rc=crf / crf=17.0 / qcomp=0.60 / qpstep=4 / stats-write=0 / stats-read=0 / vbv-maxrate=160000 / vbv-bufsize=160000 / vbv-init=0.9 / crf-max=0.0 / crf-min=0.0 / ipratio=1.40 / pbratio=1.30 / aq-mode=1 / aq-strength=1.00 / cutree / zone-count=0 / no-strict-cbr / qg-size=32 / no-rc-grain / qpmax=69 / qpmin=0 / no-const-vbv / sar=1 / overscan=0 / videoformat=5 / range=0 / colorprim=9 / transfer=16 / colormatrix=9 / chromaloc=1 / chromaloc-top=2 / chromaloc-bottom=2 / display-window=0 / master-display=G(13250,34500)B(7500,3000)R(34000,16000)WP(15635,16450)L(10000000,1) / max-cll=0,0 / min-luma=0 / max-luma=1023 / log2-max-poc-lsb=8 / vui-timing-info / vui-hrd-info / slices=1 / no-opt-qp-pps / no-opt-ref-list-length-pps / no-multi-pass-opt-rps / scenecut-bias=0.05 / no-opt-cu-delta-qp / no-aq-motion / hdr / hdr-opt / no-dhdr10-opt / analysis-reuse-level=5 / scale-factor=0 / refine-intra=0 / refine-inter=0 / refine-mv=0 / no-limit-sao / ctu-info=0 / no-lowpass-dct / refine-mv-type=0 / copy-pic=1
Language : English
Default : Yes
Forced : No
Color range : Limited
Color primaries : BT.2020
Transfer characteristics : PQ
Matrix coefficients : BT.2020 non-constant
Mastering display color primaries : Display P3
Mastering display luminance : min: 0.0001 cd/m2, max: 1000 cd/m2

Audio #1
ID : 2
Format : AC-3
Format/Info : Audio Coding 3
Codec ID : A_AC3
Duration : 1 h 39 min
Bit rate mode : Constant
Bit rate : 640 kb/s
Channel(s) : 6 channels
Channel positions : Front: L C R, Side: L R, LFE
Sampling rate : 48.0 kHz
Frame rate : 31.250 FPS (1536 SPF)
Bit depth : 16 bits
Compression mode : Lossy
Stream size : 456 MiB (2%)
Title : Latino AC3 5.1 640 kbps Bluray 4k
Language : Latin
Service kind : Complete Main
Default : Yes
Forced : No

Audio #2
ID : 3
Format : TrueHD
Format profile : TrueHD+Atmos / TrueHD
Codec ID : A_TRUEHD
Duration : 1 h 39 min
Bit rate mode : Variable
Bit rate : 4 576 kb/s
Maximum bit rate : 7 641 kb/s
Channel(s) : Object Based / 8 channels
Channel positions : Object Based / Front: L C R, Side: L R, Back: L R, LFE
Sampling rate : / 48.0 kHz
Frame rate : 1 200.000 FPS (40 SPF)
Compression mode : Lossless
Stream size : 3.19 GiB (13%)
Title : Ingles TrueHD/Atmos 7.1 4576/7641 kbps Bluray 4k
Language : English
Default : No
Forced : No

Audio #3
ID : 4
Format : AC-3
Format/Info : Audio Coding 3
Codec ID : A_AC3
Duration : 1 h 39 min
Bit rate mode : Constant
Bit rate : 640 kb/s
Channel(s) : 6 channels
Channel positions : Front: L C R, Side: L R, LFE
Sampling rate : 48.0 kHz
Frame rate : 31.250 FPS (1536 SPF)
Bit depth : 16 bits
Compression mode : Lossy
Stream size : 456 MiB (2%)
Title : Ingles AC3 5.1 640 kbps Bluray 4k
Language : English
Service kind : Complete Main
Default : No
Forced : No

Text #1
ID : 5
Format : PGS
Muxing mode : zlib
Codec ID : S_HDMV/PGS
Codec ID/Info : Picture based subtitle format used on BDs/HD-DVDs
Duration : 1 h 38 min
Bit rate : 47.7 kb/s
Count of elements : 3276
Stream size : 33.7 MiB (0%)
Title : Latino
Language : Latin
Default : No
Forced : No

Text #2
ID : 6
Format : PGS
Muxing mode : zlib
Codec ID : S_HDMV/PGS
Codec ID/Info : Picture based subtitle format used on BDs/HD-DVDs
Duration : 1 h 38 min
Bit rate : 57.7 kb/s
Count of elements : 4062
Stream size : 40.5 MiB (0%)
Title : Ingles
Language : English
Default : No
Forced : No



http://i.picasion.com/resize86/9844545824b3026d793bc689d2ca154c.jpg

https://3.bp.blogspot.com/-gK9ccJhXhqc/WrVrKKDjlMI/AAAAAAAACxc/8RfDJ4Lg9UcSiAXDHUM638ETsDbwhfAhwCLcBGAs/s1600/6.png

https://2.bp.blogspot.com/-BijHkty0Fyw/WrVrKdqiM4I/AAAAAAAACxY/ywS2cHbcrVY9LKFQbXrl7knT0jchSIgFgCLcBGAs/s1600/7.png

https://2.bp.blogspot.com/-uC5AG7HXSlQ/WrVrKjXxbPI/AAAAAAAACxg/Zl4sw5cwf1QP5PWUGNKu0ujMwqI_PZByACLcBGAs/s1600/8.png

https://4.bp.blogspot.com/-cahkVBb7fFg/WrVrMjjEEMI/AAAAAAAACxk/TZ-KlY1xofIIchDzQqnylwoIdwJwSyoZgCLcBGAs/s1600/9.png

https://3.bp.blogspot.com/-76y6keLpucY/WrVrGYUWSoI/AAAAAAAACxA/gJ52SwgTvOMt1BPgWelzl4Gz2AknPcyXACLcBGAs/s1600/10.png

DESCARGA


Links Intercambiables

https://3.bp.blogspot.com/-n3vyYws6udw/WYitgMOaduI/AAAAAAAA1L0/PE1jBg4l_7I2Cp9SjlekwnTQbXZwrQo3wCLcBGAs/s1600/1FICHIER-BANNER.png
**Hidden Content: Check the thread to see hidden data.**

http://2.bp.blogspot.com/-nXtN7MPZ_A8/VZab6hvUJRI/AAAAAAAAsNY/1VAgQ63UKOQ/s1600/MEGA-BANNER.png
**Hidden Content: Check the thread to see hidden data.**

http://3.bp.blogspot.com/-Yh5P3OSnxaQ/UOkNsmy5n6I/AAAAAAAAFG8/J9B4jZodRqM/s1600/UPLOADED_BANNER.png
**Hidden Content: Check the thread to see hidden data.**

https://1.bp.blogspot.com/-PE8m5kK7vYo/WJoNpVnuMnI/AAAAAAAA0go/jTlWOR0KOCEoUUzcNlzAqSRBkzh8nRT4QCLcB/s1600/OPENLOAD.png
**Hidden Content: Check the thread to see hidden data.**

https://4.bp.blogspot.com/-qqShfCTogHE/WaxnWvr1vHI/AAAAAAAAAL0/aTU3k5gHeNYqWMWsFEdXHF722AwHK0bewCLcBGAs/s1600/contrase%25C3%25B1a%2Bclub%2Bhd.jpg




www.club-hd.com

pablozoladz
23/03/2018, 19:46
Desc_g_

flujo
23/03/2018, 19:52
gracias

xl5
23/03/2018, 20:09
:p3sc::call:

jererado
23/03/2018, 20:38
Gracias Desc_g_

Josiba
23/03/2018, 20:41
Desc_g_

tsubasa100
24/03/2018, 02:07
gracias

fewac
24/03/2018, 03:29
Gracias!!!

samuelabad
24/03/2018, 13:34
Gracias

RESIDENT_EVIL
24/03/2018, 15:32
Desc_g_Desc_g_:pulgar1:

kado_cool
24/03/2018, 15:42
Desc_g_

SAAEDVI
24/03/2018, 15:51
ME GUSTA

juniorgarabo
24/03/2018, 16:41
Desc_g_

JCAvila
24/03/2018, 17:04
gracias!

koryak
24/03/2018, 18:42
Desc_g_

jlmonsivais
24/03/2018, 18:51
Desc_g_

kill_b911
24/03/2018, 20:25
Desc_g_

gibrannr1
25/03/2018, 02:46
Muchisimas gracias

el guicho
27/03/2018, 06:07
gracias

consuelobarturen
27/03/2018, 14:34
graciassssssss

tochulo
27/03/2018, 18:13
Desc_g_

luis
29/03/2018, 16:07
Desc_g_

novatoxp
30/03/2018, 15:49
Desc_g_

cripp
03/04/2018, 15:11
Gracias por compartir

joelmax18
09/04/2018, 21:14
gracias

ecuavideos
04/05/2018, 12:36
gracias

gustajbroldan
21/05/2018, 00:53
Descargandooooo

angello82
26/05/2018, 17:38
Gracias.

jairfon28
06/06/2018, 00:58
Gracias.

troyano2010
08/06/2018, 12:09
Desc_g_

fresco
27/07/2018, 07:29
Desc_g_

gabrielx5
30/07/2018, 19:04
gracias