PDA

Ver la versión completa : Jumanji: Welcome To The Jungle (2017) 2160p 4k UHD HDR Dual Latino-Inglés [Subt. Esp] (Aventuras. Fantástico)



Brady
21/03/2018, 01:07
https://3.bp.blogspot.com/-v0F6Jd7d6Bs/WrGWHejFrjI/AAAAAAAACvE/e2YITHH98wcrOuoQIrM_p1Eaf2TxgFBtwCLcBGAs/s1600/jumii.jpg


https://1.bp.blogspot.com/-s6PuW6TawPg/WaxnWg-5pPI/AAAAAAAAALs/OMh7vMt1tkAKRT8kSue_zxgG64KJ0Ss1ACLcBGAs/s1600/ficha%2Btecnica%2Bclub.jpg



Título Original: Jumanji: Welcome To The Jungle
Año: 2017
Duración: 119 min.
País: https://www.filmaffinity.com/imgs/countries/US.jpg United States
Director: Jake Kasdan
Guion: Jeff Pinkner, Scott Rosenberg, Erik Sommers (Novela: Chris Van Allsburg. Historia: Chris McKenna)
Reparto: Dwayne "The Rock" Johnson, Jack Black, Kevin Hart, Karen Gillan, Alex Wolff, Madison Iseman, Nick Jonas, Rhys Darby, Marc Evan Jackson, Morgan Turner, Ser'Darius William Blain, Bobby Cannavale, Missi Pyle, Maribeth Monroe, Tim Matheson
Productora: Radar Pictures / Seven Bucks Productions / Matt Tolmach Productions / Sony Pictures
Género: Aventuras. Fantástico. Comedia | Cine familiar. Videojuego


SINOPSIS
Cuatro adolescentes son absorbidos por un videojuego, en el que se convierten en avatares de personajes arquetípicos. Allí vivirán múltiples aventuras, al tiempo que buscan cómo salir de allí para volver a su mundo.

TRAILER

https://www.youtube.com/watch?v=v_TJKwJwN0E

Datos Técnicos
Video:
MPEGH HEVC / 2160p / High Profile 5.1 / 12.0 mbps

Audio:
Español Latino / AC3 5.1/ 640 kbps / 48kHz / Bluray 4k
Inglés / TrueHD/Atmos 7.1 / 4837/8469 kbps / 48kHz / Bluray 4k
Inglés / AC3 5.1 / 640 kbps / 48kHz / Bluray 4k

Subs:
Español Latino / SubRip / Bluray 4k
Español Latino / Sup / Bluray 4k
Inglés / Sup / Bluray 4k


General
Unique ID : 180925767510461632109022163736173705739 (0x881D090BC71A536663CEA541B31B7A0B)
Format : Matroska
Format version : Version 4 / Version 2
File size : 15.1 GiB
Duration : 1 h 59 min
Overall bit rate mode : Variable
Overall bit rate : 18.2 Mb/s
Encoded date : UTC 2018-03-19 01:04:44
Writing application : mkvmerge v20.0.0 ('I Am The Sun') 64-bit
Writing library : libebml v1.3.5 + libmatroska v1.4.8
Uploader : Brady
Web : www.club-hd.com

Video
ID : 1
Format : HEVC
Format/Info : High Efficiency Video Coding
Format profile : Main 10@L5.1@High
Codec ID : V_MPEGH/ISO/HEVC
Duration : 1 h 59 min
Bit rate : 12.0 Mb/s
Width : 3 840 pixels
Height : 1 604 pixels
Display aspect ratio : 2.40:1
Frame rate mode : Constant
Frame rate : 23.976 (24000/1001) FPS
Color space : YUV
Chroma subsampling : 4:2:0 (Type 2)
Bit depth : 10 bits
Bits/(Pixel*Frame) : 0.081
Stream size : 9.97 GiB (66%)
Writing library : x265 2.7+3-0b781d592c8e:[Windows][GCC 6.3.0][64 bit] 10bit
Encoding settings : cpuid=1173503 / frame-threads=4 / numa-pools=16 / wpp / no-pmode / no-pme / no-psnr / no-ssim / log-level=2 / input-csp=1 / input-res=3840x1604 / interlace=0 / total-frames=171264 / level-idc=51 / high-tier=1 / uhd-bd=0 / ref=4 / no-allow-non-conformance / repeat-headers / annexb / aud / hrd / info / hash=0 / no-temporal-layers / no-open-gop / min-keyint=24 / keyint=240 / gop-lookahead=0 / bframes=4 / b-adapt=2 / b-pyramid / bframe-bias=0 / rc-lookahead=25 / lookahead-slices=4 / scenecut=40 / radl=0 / no-intra-refresh / ctu=64 / min-cu-size=8 / rect / no-amp / max-tu-size=32 / tu-inter-depth=1 / tu-intra-depth=1 / limit-tu=0 / rdoq-level=2 / dynamic-rd=0.00 / no-ssim-rd / signhide / no-tskip / nr-intra=0 / nr-inter=0 / no-constrained-intra / no-strong-intra-smoothing / max-merge=3 / limit-refs=3 / limit-modes / me=3 / subme=3 / merange=57 / temporal-mvp / weightp / no-weightb / no-analyze-src-pics / deblock=-3:-3 / no-sao / no-sao-non-deblock / rd=4 / no-early-skip / rskip / no-fast-intra / no-tskip-fast / no-cu-lossless / no-b-intra / no-splitrd-skip / rdpenalty=0 / psy-rd=2.00 / psy-rdoq=1.00 / no-rd-refine / no-lossless / cbqpoffs=0 / crqpoffs=0 / rc=crf / crf=17.0 / qcomp=0.60 / qpstep=4 / stats-write=0 / stats-read=0 / vbv-maxrate=160000 / vbv-bufsize=160000 / vbv-init=0.9 / crf-max=0.0 / crf-min=0.0 / ipratio=1.40 / pbratio=1.30 / aq-mode=1 / aq-strength=1.00 / cutree / zone-count=0 / no-strict-cbr / qg-size=32 / no-rc-grain / qpmax=69 / qpmin=0 / no-const-vbv / sar=1 / overscan=0 / videoformat=5 / range=0 / colorprim=9 / transfer=16 / colormatrix=9 / chromaloc=1 / chromaloc-top=2 / chromaloc-bottom=2 / display-window=0 / master-display=G(13250,34500)B(7500,3000)R(34000,16000)WP(15635,16450)L(40000000,50) / max-cll=2013,393 / min-luma=0 / max-luma=1023 / log2-max-poc-lsb=8 / vui-timing-info / vui-hrd-info / slices=1 / no-opt-qp-pps / no-opt-ref-list-length-pps / no-multi-pass-opt-rps / scenecut-bias=0.05 / no-opt-cu-delta-qp / no-aq-motion / hdr / hdr-opt / no-dhdr10-opt / analysis-reuse-level=5 / scale-factor=0 / refine-intra=0 / refine-inter=0 / refine-mv=0 / no-limit-sao / ctu-info=0 / no-lowpass-dct / refine-mv-type=0 / copy-pic=1
Language : English
Default : Yes
Forced : No
Color range : Limited
Color primaries : BT.2020
Transfer characteristics : PQ
Matrix coefficients : BT.2020 non-constant
Mastering display color primaries : Display P3
Mastering display luminance : min: 0.0050 cd/m2, max: 4000 cd/m2
Maximum Content Light Level : 2013 cd/m2
Maximum Frame-Average Light Level : 393 cd/m2

Audio #1
ID : 2
Format : AC-3
Format/Info : Audio Coding 3
Codec ID : A_AC3
Duration : 1 h 59 min
Bit rate mode : Constant
Bit rate : 640 kb/s
Channel(s) : 6 channels
Channel positions : Front: L C R, Side: L R, LFE
Sampling rate : 48.0 kHz
Frame rate : 31.250 FPS (1536 SPF)
Bit depth : 16 bits
Compression mode : Lossy
Stream size : 545 MiB (4%)
Title : Latino AC3 5.1 640 kbps Bluray 4k
Language : Latin
Service kind : Complete Main
Default : Yes
Forced : No

Audio #2
ID : 3
Format : TrueHD
Format profile : TrueHD+Atmos / TrueHD
Codec ID : A_TRUEHD
Duration : 1 h 59 min
Bit rate mode : Variable
Bit rate : 4 837 kb/s
Maximum bit rate : 8 469 kb/s
Channel(s) : Object Based / 8 channels
Channel positions : Object Based / Front: L C R, Side: L R, Back: L R, LFE
Sampling rate : / 48.0 kHz
Frame rate : 1 200.000 FPS (40 SPF)
Compression mode : Lossless
Stream size : 4.02 GiB (27%)
Title : Ingles TrueHD/Atmos 7.1 4837/8469 kbps Bluray 4k
Language : English
Default : No
Forced : No

Audio #3
ID : 4
Format : AC-3
Format/Info : Audio Coding 3
Codec ID : A_AC3
Duration : 1 h 59 min
Bit rate mode : Constant
Bit rate : 640 kb/s
Channel(s) : 6 channels
Channel positions : Front: L C R, Side: L R, LFE
Sampling rate : 48.0 kHz
Frame rate : 31.250 FPS (1536 SPF)
Bit depth : 16 bits
Compression mode : Lossy
Stream size : 545 MiB (4%)
Title : Ingles AC3 5.1 640 kbps Bluray 4k
Language : English
Service kind : Complete Main
Default : No
Forced : No

Text #1
ID : 5
Format : UTF-8
Codec ID : S_TEXT/UTF8
Codec ID/Info : UTF-8 Plain Text
Duration : 1 h 48 min
Bit rate : 57 b/s
Count of elements : 1510
Stream size : 45.5 KiB (0%)
Title : Latino
Language : Latin
Default : No
Forced : No

Text #2
ID : 6
Format : PGS
Muxing mode : zlib
Codec ID : S_HDMV/PGS
Codec ID/Info : Picture based subtitle format used on BDs/HD-DVDs
Duration : 1 h 57 min
Bit rate : 31.9 kb/s
Count of elements : 3026
Stream size : 26.8 MiB (0%)
Title : Latino
Language : Latin
Default : No
Forced : No

Text #3
ID : 7
Format : PGS
Muxing mode : zlib
Codec ID : S_HDMV/PGS
Codec ID/Info : Picture based subtitle format used on BDs/HD-DVDs
Duration : 1 h 58 min
Bit rate : 42.2 kb/s
Count of elements : 3764
Stream size : 35.7 MiB (0%)
Title : Ingles
Language : English
Default : No
Forced : No



http://i.picasion.com/resize86/9844545824b3026d793bc689d2ca154c.jpg

https://3.bp.blogspot.com/-PW6x_3N1rp8/WrG0CSoVhlI/AAAAAAAACvw/nPf_b46EXicZxk7nCDgZzTmSyZXmLuv3QCLcBGAs/s1600/6.png

https://3.bp.blogspot.com/-0rJgAoux6LI/WrG0Cx-havI/AAAAAAAACv0/nC2QOmNRXlI1_sWxmVgSyOnljYSFztURQCLcBGAs/s1600/7.png

https://3.bp.blogspot.com/-LJgSqZRZCCM/WrG0DMdIu0I/AAAAAAAACv4/gIErcwiQtbM295ZmCR176PDvTdDABUNIgCLcBGAs/s1600/8.png

https://3.bp.blogspot.com/-ZtVzeFeCVAM/WrG0Df-bpwI/AAAAAAAACv8/znNTDBlZR8gEmX8kZZ76SNmGIixS3U5ZgCLcBGAs/s1600/9.png

https://2.bp.blogspot.com/-h3gFkdbI5tg/WrGz_zJEf1I/AAAAAAAACvY/T_Sh7olIDcMFoCaDj9PuSi-1zBM3W0DcQCLcBGAs/s1600/10.png

DESCARGA


Links Intercambiables

https://3.bp.blogspot.com/-n3vyYws6udw/WYitgMOaduI/AAAAAAAA1L0/PE1jBg4l_7I2Cp9SjlekwnTQbXZwrQo3wCLcBGAs/s1600/1FICHIER-BANNER.png
**Hidden Content: Check the thread to see hidden data.**

http://2.bp.blogspot.com/-nXtN7MPZ_A8/VZab6hvUJRI/AAAAAAAAsNY/1VAgQ63UKOQ/s1600/MEGA-BANNER.png
**Hidden Content: Check the thread to see hidden data.**

http://3.bp.blogspot.com/-Yh5P3OSnxaQ/UOkNsmy5n6I/AAAAAAAAFG8/J9B4jZodRqM/s1600/UPLOADED_BANNER.png
**Hidden Content: Check the thread to see hidden data.**

https://1.bp.blogspot.com/-PE8m5kK7vYo/WJoNpVnuMnI/AAAAAAAA0go/jTlWOR0KOCEoUUzcNlzAqSRBkzh8nRT4QCLcB/s1600/OPENLOAD.png
**Hidden Content: Check the thread to see hidden data.**

https://4.bp.blogspot.com/-qqShfCTogHE/WaxnWvr1vHI/AAAAAAAAAL0/aTU3k5gHeNYqWMWsFEdXHF722AwHK0bewCLcBGAs/s1600/contrase%25C3%25B1a%2Bclub%2Bhd.jpg




www.club-hd.com

JCAvila
21/03/2018, 01:24
gracias!

cpola
21/03/2018, 07:20
Gracias

virus619
21/03/2018, 07:26
Desc_g_

Josiba
21/03/2018, 07:31
Desc_g_

PATRICIOG
21/03/2018, 07:34
Desc_g_

christian
21/03/2018, 10:40
gracias

danscauv
21/03/2018, 10:59
Excelente gracias.

neto6911
21/03/2018, 12:31
Gracias

RESIDENT_EVIL
21/03/2018, 12:40
Desc_g_Desc_g_:doble:

GASA2010
21/03/2018, 13:02
GRACIAS

flujo
21/03/2018, 15:18
gracias

LANINADULCE
21/03/2018, 15:54
Desc_g_

SAAEDVI
21/03/2018, 20:18
me gusta

joelmax18
21/03/2018, 22:44
gracias

Edu_Alvarado
21/03/2018, 22:56
gracias

cripp
22/03/2018, 17:30
Gracias por compartir

novatoxp
22/03/2018, 21:03
Desc_g_

tsubasa100
23/03/2018, 08:10
Gracias

muruagam
23/03/2018, 08:34
Desc_g_

mmartelli
23/03/2018, 12:40
gracias muy buena

patoch
23/03/2018, 20:16
Desc_g_

DoomsDay Elite
24/03/2018, 02:37
muchas gracias por el aporte por lo general me espero asi porque los audios dts no corren en mi tv

fewac
24/03/2018, 03:23
Gracias!!!

gibrannr1
24/03/2018, 05:21
Gracias :pulgar1:

samuelabad
24/03/2018, 13:55
Gracias

juniorgarabo
24/03/2018, 16:44
Desc_g_

checho68
24/03/2018, 20:39
Gracias..

carlosselkoala
25/03/2018, 02:16
Desc_g_

spamthiss
25/03/2018, 17:36
gracias

el guicho
25/03/2018, 19:31
gracias

MAXIMILIANOBARRA
25/03/2018, 21:22
gracias

Dogasaregresa
26/03/2018, 02:47
Excelente! Desc_g_

betarte00
28/03/2018, 17:41
Excelente, gracias

pepititoma
29/03/2018, 12:26
Muchas gracias.

jdz5
30/03/2018, 15:54
Gracias bajando

cdf
31/03/2018, 13:13
Muchas Gracias!!!

tincho2273
31/03/2018, 22:59
Desc_g_

vhrod
01/04/2018, 01:04
Desc_g_

Gibraine
07/04/2018, 02:34
Gracias!

albertocastillo
10/04/2018, 10:58
graciassss

angello82
19/04/2018, 20:06
Gracias.

lpdavila85
25/04/2018, 19:35
Desc_g_

childforever
03/05/2018, 17:05
Desc_g_

ecuavideos
04/05/2018, 12:37
gracias

Chris2000
05/05/2018, 21:19
Gracuas:yessir:

frankarter
13/05/2018, 12:37
Desc_g_

perseo36
20/05/2018, 01:15
Desc_g_

j-galicia-h
22/05/2018, 05:23
gracias amigo bajando buen pelicula

Bernal
30/05/2018, 18:53
Desc_g_

pippin51
02/06/2018, 04:04
muchas gracias

mathiasfx
03/06/2018, 19:28
Gracias compa

juancholi
05/06/2018, 22:54
Desc_g_

jairfon28
06/06/2018, 00:59
Gracias.

troyano2010
08/06/2018, 12:11
Desc_g_

x3ro
09/06/2018, 18:10
muchas gracias

malabaresdepayaso
10/06/2018, 17:21
Desc_g_

gabrielx5
11/07/2018, 04:08
gracias