PDA

Ver la versión completa : Maze Runner: The Scorch Trials (2015) 2160p 4k UHD HDR Dual Latino-Inglés [Subt. Esp] (Ciencia Ficción. Acción)



Brady
08/02/2018, 06:13
https://4.bp.blogspot.com/-Fp8yelUQFhg/WnugKvctKVI/AAAAAAAACfA/wEGMm7yLZ7Ie5m8fNRV5WCJNH1Va_SbsQCLcBGAs/s1600/maze2.jpg


https://1.bp.blogspot.com/-s6PuW6TawPg/WaxnWg-5pPI/AAAAAAAAALs/OMh7vMt1tkAKRT8kSue_zxgG64KJ0Ss1ACLcBGAs/s1600/ficha%2Btecnica%2Bclub.jpg



Título Original: Maze Runner: The Scorch Trials
Año: 2015
Duración: 131 min.
País: https://www.filmaffinity.com/imgs/countries/US.jpg United States
Director: Wes Ball
Guion: T.S. Nowlin (Novela: James Dashner)
Reparto: Dylan O'Brien, Thomas Brodie-Sangster, Kaya Scodelario, Ki Hong Lee, Giancarlo Esposito, Aidan Gillen, Patricia Clarkson, Rosa Salazar, Nathalie Emmanuel, Jacob Lofland, Dexter Darden, Alan Tudyk, Alexander Flores, Gary Hood, Lili Taylor, Barry Pepper
Productora: 20th Century Fox / Gotham Group / TSG Entertainment / Temple Hill Entertainment
Género: Acción. Ciencia ficción | Secuela. Futuro postapocalíptico. Supervivencia. Distopía. Young Adult


SINOPSIS
Thomas (Dylan O'Brien) y los demás clarianos tendrán que enfrentarse al mayor desafío de sus vidas: buscar pistas sobre la misteriosa y poderosa organización "CRUEL". Esta aventura los llevará a "La Quemadura", un apocalíptico lugar lleno de inimaginables obstáculos. Aliados con miembros de la Resistencia, tendrán que descubrir quiénes son los dirigentes de la secta y cuáles son sus planes.

TRAILER

https://www.youtube.com/watch?v=G16sCvOyDsg

Datos Técnicos
Video:
MPEGH HEVC / 2160p / High Profile 5.1 / 11.4 mbps

Audio:
Español Latino / AC3 5.1/ 448 kbps / 48kHz / Bluray 4k
Inglés / DTS-HD MA/ES Matrix/Core 7.1/6.1/5.1 / 5083/1509/1509 kbps / 48kHz / Bluray 4k

Subs:
Español Latino / SubRip / Bluray 4k
Español Latino Forzados / SubRip / Bluray 4k
Español Latino / Sup / Bluray 4k
Inglés / Sup / Bluray 4k


General
Unique ID : 187620014091820817568325687127559113885 (0x8D264CE277000739A02EB45418940C9D)
Format : Matroska
Format version : Version 4 / Version 2
File size : 15.6 GiB
Duration : 2 h 11 min
Overall bit rate : 16.9 Mb/s
Encoded date : UTC 2018-02-07 08:27:11
Writing application : mkvmerge v9.9.0 ('Pick Up') 64bit
Writing library : libebml v1.3.4 + libmatroska v1.4.5
Uploader : Brady
Web : www.club-hd.com

Video
ID : 1
Format : HEVC
Format/Info : High Efficiency Video Coding
Format profile : Main 10@L5.1@High
Codec ID : V_MPEGH/ISO/HEVC
Duration : 2 h 11 min
Bit rate : 11.4 Mb/s
Width : 3 840 pixels
Height : 1 600 pixels
Display aspect ratio : 2.40:1
Frame rate mode : Constant
Frame rate : 23.976 (24000/1001) FPS
Color space : YUV
Chroma subsampling : 4:2:0 (Type 2)
Bit depth : 10 bits
Bits/(Pixel*Frame) : 0.077
Stream size : 10.5 GiB (67%)
Writing library : x265 2.5+58-06979c042350:[Windows][GCC 6.2.1][64 bit] 10bit
Encoding settings : cpuid=1173503 / frame-threads=4 / numa-pools=20 / wpp / no-pmode / no-pme / no-psnr / no-ssim / log-level=2 / input-csp=1 / input-res=3840x1600 / interlace=0 / total-frames=189480 / level-idc=51 / high-tier=1 / uhd-bd=0 / ref=4 / no-allow-non-conformance / repeat-headers / annexb / aud / hrd / info / hash=0 / no-temporal-layers / no-open-gop / min-keyint=1 / keyint=24 / bframes=4 / b-adapt=2 / b-pyramid / bframe-bias=0 / rc-lookahead=25 / lookahead-slices=4 / scenecut=40 / no-intra-refresh / ctu=64 / min-cu-size=8 / rect / no-amp / max-tu-size=32 / tu-inter-depth=1 / tu-intra-depth=1 / limit-tu=0 / rdoq-level=2 / dynamic-rd=0.00 / no-ssim-rd / signhide / no-tskip / nr-intra=0 / nr-inter=0 / no-constrained-intra / no-strong-intra-smoothing / max-merge=3 / limit-refs=3 / limit-modes / me=3 / subme=3 / merange=57 / temporal-mvp / weightp / no-weightb / no-analyze-src-pics / deblock=-3:-3 / no-sao / no-sao-non-deblock / rd=4 / no-early-skip / rskip / no-fast-intra / no-tskip-fast / no-cu-lossless / no-b-intra / no-splitrd-skip / rdpenalty=0 / psy-rd=2.00 / psy-rdoq=1.00 / no-rd-refine / analysis-reuse-mode=0 / no-lossless / cbqpoffs=0 / crqpoffs=0 / rc=crf / crf=17.0 / qcomp=0.60 / qpstep=4 / stats-write=0 / stats-read=0 / vbv-maxrate=160000 / vbv-bufsize=160000 / vbv-init=0.9 / crf-max=0.0 / crf-min=0.0 / ipratio=1.40 / pbratio=1.30 / aq-mode=1 / aq-strength=1.00 / cutree / zone-count=0 / no-strict-cbr / qg-size=32 / no-rc-grain / qpmax=69 / qpmin=0 / no-const-vbv / sar=1 / overscan=0 / videoformat=5 / range=0 / colorprim=9 / transfer=16 / colormatrix=9 / chromaloc=1 / chromaloc-top=2 / chromaloc-bottom=2 / display-window=0 / master-display=G(13250,34500)B(7500,3000)R(34000,16000)WP(15635,16450)L(11000000,0) / max-cll=0,0 / min-luma=0 / max-luma=1023 / log2-max-poc-lsb=8 / vui-timing-info / vui-hrd-info / slices=1 / no-opt-qp-pps / no-opt-ref-list-length-pps / no-multi-pass-opt-rps / scenecut-bias=0.05 / no-opt-cu-delta-qp / no-aq-motion / hdr / hdr-opt / no-dhdr10-opt / analysis-reuse-level=5 / scale-factor=0 / refine-intra=0 / refine-inter=0 / refine-mv=0 / no-limit-sao / ctu-info=0 / no-lowpass-dct / refine-mv-type=0 / copy-pic=1
Language : English
Default : Yes
Forced : No
Color range : Limited
Color primaries : BT.2020
Transfer characteristics : PQ
Matrix coefficients : BT.2020 non-constant
Mastering display color primaries : R: x=0.680000 y=0.320000, G: x=0.265000 y=0.690000, B: x=0.150000 y=0.060000, White point: x=0.312700 y=0.329000
Mastering display luminance : min: 0.0000 cd/m2, max: 1100.0000 cd/m2

Audio #1
ID : 2
Format : AC-3
Format/Info : Audio Coding 3
Codec ID : A_AC3
Duration : 2 h 11 min
Bit rate mode : Constant
Bit rate : 448 kb/s
Channel(s) : 6 channels
Channel positions : Front: L C R, Side: L R, LFE
Sampling rate : 48.0 kHz
Frame rate : 31.250 FPS (1536 SPF)
Bit depth : 16 bits
Compression mode : Lossy
Stream size : 422 MiB (3%)
Title : Latino AC3 5.1 448 kbps Bluray 4k
Language : Latin
Service kind : Complete Main
Default : Yes
Forced : No

Audio #2
ID : 3
Format : DTS
Format/Info : Digital Theater Systems
Format profile : MA / ES Matrix / Core
Codec ID : A_DTS
Duration : 2 h 11 min
Bit rate mode : Variable / Constant / Constant
Bit rate : 5 083 kb/s / 1 509 kb/s / 1 509 kb/s
Channel(s) : 8 channels / 7 channels / 6 channels
Channel positions : Front: L C R, Side: L R, Back: L R, LFE / Front: L C R, Side: L R, Back: C, LFE / Front: L C R, Side: L R, LFE
Sampling rate : 48.0 kHz
Frame rate : 93.750 FPS (512 SPF)
Bit depth : 24 bits
Compression mode : Lossless / Lossy / Lossy
Stream size : 4.68 GiB (30%)
Title : Ingles DTS-HD MA/ES Matrix/Core 7.1/6.1/5.1 5083/1509/1509 kbps Bluray 4k
Language : English
Default : No
Forced : No

Text #1
ID : 4
Format : UTF-8
Codec ID : S_TEXT/UTF8
Codec ID/Info : UTF-8 Plain Text
Duration : 2 h 2 min
Bit rate : 40 b/s
Count of elements : 1454
Stream size : 36.3 KiB (0%)
Title : Latino
Language : Latin
Default : No
Forced : No

Text #2
ID : 5
Format : UTF-8
Codec ID : S_TEXT/UTF8
Codec ID/Info : UTF-8 Plain Text
Duration : 35 min 7 s
Bit rate : 0 b/s
Count of elements : 3
Stream size : 52.0 Bytes (0%)
Title : Forzados
Language : Latin
Default : Yes
Forced : No

Text #3
ID : 6
Format : PGS
Muxing mode : zlib
Codec ID : S_HDMV/PGS
Codec ID/Info : Picture based subtitle format used on BDs/HD-DVDs
Duration : 2 h 2 min
Bit rate : 17.8 kb/s
Count of elements : 2908
Stream size : 15.6 MiB (0%)
Title : Latino
Language : Latin
Default : No
Forced : No

Text #4
ID : 7
Format : PGS
Muxing mode : zlib
Codec ID : S_HDMV/PGS
Codec ID/Info : Picture based subtitle format used on BDs/HD-DVDs
Duration : 2 h 2 min
Bit rate : 11.5 kb/s
Count of elements : 3810
Stream size : 10.1 MiB (0%)
Title : Ingles
Language : English
Default : No
Forced : No



http://i.picasion.com/resize86/9844545824b3026d793bc689d2ca154c.jpg

https://1.bp.blogspot.com/-h59ZYB9VK_0/Wnukq8h78YI/AAAAAAAACfs/pLWniA7BpPU-HEugkUzQlX5lkdYbMrSJgCLcBGAs/s1600/6.png

https://1.bp.blogspot.com/---jonYdwbTk/WnukrUKNtWI/AAAAAAAACfw/XsTwf6-7anoAdfp6LzqvjACYrs3s1TfEwCLcBGAs/s1600/7.png

https://3.bp.blogspot.com/-UAUS69fvVW0/Wnukrw4BsUI/AAAAAAAACf0/LyRhlDmDLHEMj7_n2rJpoBBK6D0LiZBQQCLcBGAs/s1600/8.png

https://1.bp.blogspot.com/-G-Y6ny_smsM/WnuksCIbEoI/AAAAAAAACf4/qhpcG1qiSvUQT1rxHnjcWwuGEftiUDCqwCLcBGAs/s1600/9.png

https://4.bp.blogspot.com/-FpD_6cv9j3k/WnukpewSUUI/AAAAAAAACfY/gm9QKXdDYx8omgFWPWzVxwh6CXO424LDgCLcBGAs/s1600/10.png

DESCARGA


Links Intercambiables

https://3.bp.blogspot.com/-n3vyYws6udw/WYitgMOaduI/AAAAAAAA1L0/PE1jBg4l_7I2Cp9SjlekwnTQbXZwrQo3wCLcBGAs/s1600/1FICHIER-BANNER.png
**Hidden Content: Check the thread to see hidden data.**

http://2.bp.blogspot.com/-nXtN7MPZ_A8/VZab6hvUJRI/AAAAAAAAsNY/1VAgQ63UKOQ/s1600/MEGA-BANNER.png
**Hidden Content: Check the thread to see hidden data.**

http://3.bp.blogspot.com/-Yh5P3OSnxaQ/UOkNsmy5n6I/AAAAAAAAFG8/J9B4jZodRqM/s1600/UPLOADED_BANNER.png
**Hidden Content: Check the thread to see hidden data.**

https://1.bp.blogspot.com/-PE8m5kK7vYo/WJoNpVnuMnI/AAAAAAAA0go/jTlWOR0KOCEoUUzcNlzAqSRBkzh8nRT4QCLcB/s1600/OPENLOAD.png
**Hidden Content: Check the thread to see hidden data.**

https://4.bp.blogspot.com/-qqShfCTogHE/WaxnWvr1vHI/AAAAAAAAAL0/aTU3k5gHeNYqWMWsFEdXHF722AwHK0bewCLcBGAs/s1600/contrase%25C3%25B1a%2Bclub%2Bhd.jpg




www.club-hd.com

virus619
08/02/2018, 06:54
Desc_g_

cpola
08/02/2018, 07:11
Gracias

coyote81
08/02/2018, 08:35
geniaaaal

Josiba
08/02/2018, 08:53
Desc_g_

hombrelobo
08/02/2018, 10:59
gracias

pepititoma
08/02/2018, 11:11
Gracias.

JCAvila
08/02/2018, 11:53
gracias!

norbertociv
08/02/2018, 12:31
gracias:apls:

eabadia
08/02/2018, 13:27
bajando

flujo
08/02/2018, 17:39
gracias

SAAEDVI
08/02/2018, 20:02
me gusta

fewac
09/02/2018, 02:41
Gracias!!!

cripp
09/02/2018, 10:59
Gracias por compartir

jcobos
09/02/2018, 11:36
descargandoooo.........

MasterSombrA
09/02/2018, 13:47
gracias amigo

PATRICIOG
09/02/2018, 18:11
Desc_g_

obstinado
09/02/2018, 21:34
Desc_g_

jramirez05
09/02/2018, 23:43
gracias

novatoxp
10/02/2018, 05:28
Desc_g_

samuelabad
10/02/2018, 16:31
Gracias

juniorgarabo
10/02/2018, 20:00
Desc_g_

RESIDENT_EVIL
11/02/2018, 02:15
Desc_g_Desc_g_

kano
11/02/2018, 15:58
gracias :D

jucarperdor
12/02/2018, 11:24
Gracias.

gabrielx5
16/02/2018, 05:30
gracias

kill_b911
16/02/2018, 21:02
Desc_g_

fresco
18/02/2018, 01:52
Desc_g_

tsubasa100
20/02/2018, 22:06
Gracias

msr.1899
21/02/2018, 13:05
Gracias.

Edu_Alvarado
14/03/2018, 11:21
bajando

Andreslvl
05/04/2018, 15:31
Desc_g_

spamthiss
09/04/2018, 02:31
Gracias

joelmax18
09/04/2018, 21:06
gracias

lordtrade
10/04/2018, 11:33
Gracias!!!

jucades
10/04/2018, 12:53
Gracias por el aporte. A disfrutar

betarte00
19/04/2018, 18:11
Gracias!!!!

evangeliox
22/04/2018, 18:10
Desc_g_

fernando4555
29/04/2018, 21:22
Desc_g_

ecuavideos
30/04/2018, 10:43
gracias

pippin51
06/06/2018, 03:11
muchas gracias

Prem1er
16/08/2018, 05:03
gracias!

Bernal
08/09/2018, 11:48
Desc_g_