PDA

Ver la versión completa : The Maze Runner (2014) 2160p 4k UHD HDR Dual Latino-Inglés [Subt. Esp] (Ciencia Ficción. Acción)



Brady
08/02/2018, 06:13
https://2.bp.blogspot.com/-k9-gHYxDECM/WnugKp2qecI/AAAAAAAACe8/oKEqFG5JmdwYr3-610ybZisXpvCADy8uQCLcBGAs/s1600/maze1.jpg


https://1.bp.blogspot.com/-s6PuW6TawPg/WaxnWg-5pPI/AAAAAAAAALs/OMh7vMt1tkAKRT8kSue_zxgG64KJ0Ss1ACLcBGAs/s1600/ficha%2Btecnica%2Bclub.jpg



Título Original: The Maze Runner
Año: 2014
Duración: 113 min.
País: https://www.filmaffinity.com/imgs/countries/US.jpg United States
Director: Wes Ball
Guion: James Dashner, Noah Oppenheim (Novela: James Dashner)
Reparto: Dylan O'Brien, Thomas Brodie-Sangster, Kaya Scodelario, Will Poulter, Ki Hong Lee, Blake Cooper, Aml Ameen, Jacob Latimore, Dexter Darden, Chris Sheffield, Joe Adler, Alexander Flores, Randall D. Cunningham, Patricia Clarkson, Don McManus
Productora: 20th Century Fox / Gotham Group
Género: Ciencia ficción. Acción. Aventuras | Futuro postapocalíptico. Supervivencia. Distopía. Young Adult


SINOPSIS
Año 2024. Cuando el joven Thomas despierta, se encuentra en un ascensor y no recuerda quién es. De pronto, el ascensor se detiene, las puertas se abren y una multitud de chicos lo recibe. Ha llegado al Claro, un lugar rodeado de altísimos muros con dos portones que todas las mañanas se abren y dan paso a un inmenso laberinto. De noche, las puertas se cierran y por el laberinto circulan unas aterradoras criaturas llamadas laceradores. Todo lo que ocurre en el Claro sigue unas pautas: al abrirse las puertas, algunos chicos salen a correr al laberinto para buscar una salida. Una vez al mes, el ascensor sube con un nuevo chico, nunca una chica... hasta ahora. Tras la llegada de Thomas, suena una alarma y el ascensor trae a otra persona. Es una chica, y en la nota que la acompaña pone: "Ella es la última. No llegarán más". Las cosas en el Claro empiezan a cambiar, y lo único en lo que Thomas puede pensar es en lo mucho que desea ser un corredor.

TRAILER

https://www.youtube.com/watch?v=K1In45K0DGc

Datos Técnicos
Video:
MPEGH HEVC / 2160p / High Profile 5.1 / 13.8 mbps

Audio:
Español Latino / AC3 5.1/ 448 kbps / 48kHz / Bluray 4k
Inglés / DTS-HD MA/ES Matrix/Core 7.1/6.1/5.1 / 5627/1509/1509 kbps / 48kHz / Bluray 4k

Subs:
Español Latino / SubRip / Bluray 4k
Español Latino / Sup / Bluray 4k
Inglés / Sup / Bluray 4k


General
Unique ID : 193337408013784780611874070211286271932 (0x91736E2B2E7122F081C3E3498FA407BC)
Format : Matroska
Format version : Version 4 / Version 2
File size : 15.8 GiB
Duration : 1 h 53 min
Overall bit rate : 19.9 Mb/s
Encoded date : UTC 2018-02-07 05:38:12
Writing application : mkvmerge v9.9.0 ('Pick Up') 64bit
Writing library : libebml v1.3.4 + libmatroska v1.4.5
Uploader : Brady
Web : www.club-hd.com

Video
ID : 1
Format : HEVC
Format/Info : High Efficiency Video Coding
Format profile : Main 10@L5.1@High
Codec ID : V_MPEGH/ISO/HEVC
Duration : 1 h 53 min
Bit rate : 13.8 Mb/s
Width : 3 840 pixels
Height : 1 596 pixels
Display aspect ratio : 2.40:1
Frame rate mode : Constant
Frame rate : 23.976 (24000/1001) FPS
Color space : YUV
Chroma subsampling : 4:2:0 (Type 2)
Bit depth : 10 bits
Bits/(Pixel*Frame) : 0.094
Stream size : 11.0 GiB (69%)
Writing library : x265 2.6+13-6b079854e56e:[Windows][MSVC 1912][64 bit] 10bit
Encoding settings : cpuid=1173503 / frame-threads=4 / numa-pools=16 / wpp / no-pmode / no-pme / no-psnr / no-ssim / log-level=2 / input-csp=1 / input-res=3840x1596 / interlace=0 / total-frames=163207 / level-idc=51 / high-tier=1 / uhd-bd=0 / ref=4 / no-allow-non-conformance / repeat-headers / annexb / aud / hrd / info / hash=0 / no-temporal-layers / no-open-gop / min-keyint=24 / keyint=240 / gop-lookahead=0 / bframes=4 / b-adapt=2 / b-pyramid / bframe-bias=0 / rc-lookahead=25 / lookahead-slices=4 / scenecut=40 / no-intra-refresh / ctu=64 / min-cu-size=8 / rect / no-amp / max-tu-size=32 / tu-inter-depth=1 / tu-intra-depth=1 / limit-tu=0 / rdoq-level=2 / dynamic-rd=0.00 / no-ssim-rd / signhide / no-tskip / nr-intra=0 / nr-inter=0 / no-constrained-intra / no-strong-intra-smoothing / max-merge=3 / limit-refs=3 / limit-modes / me=3 / subme=3 / merange=57 / temporal-mvp / weightp / no-weightb / no-analyze-src-pics / deblock=-3:-3 / no-sao / no-sao-non-deblock / rd=4 / no-early-skip / rskip / no-fast-intra / no-tskip-fast / no-cu-lossless / no-b-intra / no-splitrd-skip / rdpenalty=0 / psy-rd=2.00 / psy-rdoq=1.00 / no-rd-refine / analysis-reuse-mode=0 / no-lossless / cbqpoffs=0 / crqpoffs=0 / rc=crf / crf=17.0 / qcomp=0.60 / qpstep=4 / stats-write=0 / stats-read=0 / vbv-maxrate=160000 / vbv-bufsize=160000 / vbv-init=0.9 / crf-max=0.0 / crf-min=0.0 / ipratio=1.40 / pbratio=1.30 / aq-mode=1 / aq-strength=1.00 / cutree / zone-count=0 / no-strict-cbr / qg-size=32 / no-rc-grain / qpmax=69 / qpmin=0 / no-const-vbv / sar=1 / overscan=0 / videoformat=5 / range=0 / colorprim=9 / transfer=16 / colormatrix=9 / chromaloc=1 / chromaloc-top=2 / chromaloc-bottom=2 / display-window=0 / master-display=G(13250,34500)B(7500,3000)R(34000,16000)WP(15635,16450)L(11000000,0) / max-cll=0,0 / min-luma=0 / max-luma=1023 / log2-max-poc-lsb=8 / vui-timing-info / vui-hrd-info / slices=1 / opt-qp-pps / opt-ref-list-length-pps / no-multi-pass-opt-rps / scenecut-bias=0.05 / no-opt-cu-delta-qp / no-aq-motion / hdr / hdr-opt / no-dhdr10-opt / analysis-reuse-level=5 / scale-factor=0 / refine-intra=0 / refine-inter=0 / refine-mv=0 / no-limit-sao / ctu-info=0 / no-lowpass-dct / refine-mv-type=0 / copy-pic=1
Language : English
Default : Yes
Forced : No
Color range : Limited
Color primaries : BT.2020
Transfer characteristics : PQ
Matrix coefficients : BT.2020 non-constant
Mastering display color primaries : R: x=0.680000 y=0.320000, G: x=0.265000 y=0.690000, B: x=0.150000 y=0.060000, White point: x=0.312700 y=0.329000
Mastering display luminance : min: 0.0000 cd/m2, max: 1100.0000 cd/m2

Audio #1
ID : 2
Format : AC-3
Format/Info : Audio Coding 3
Codec ID : A_AC3
Duration : 1 h 53 min
Bit rate mode : Constant
Bit rate : 448 kb/s
Channel(s) : 6 channels
Channel positions : Front: L C R, Side: L R, LFE
Sampling rate : 48.0 kHz
Frame rate : 31.250 FPS (1536 SPF)
Bit depth : 16 bits
Compression mode : Lossy
Stream size : 364 MiB (2%)
Title : Latino AC3 5.1 448 kbps Bluray 4k
Language : Latin
Service kind : Complete Main
Default : Yes
Forced : No

Audio #2
ID : 3
Format : DTS
Format/Info : Digital Theater Systems
Format profile : MA / ES Matrix / Core
Codec ID : A_DTS
Duration : 1 h 53 min
Bit rate mode : Variable / Constant / Constant
Bit rate : 5627/1509/1509
Channel(s) : 8 channels / 7 channels / 6 channels
Channel positions : Front: L C R, Side: L R, Back: L R, LFE / Front: L C R, Side: L R, Back: C, LFE / Front: L C R, Side: L R, LFE
Sampling rate : 48.0 kHz
Frame rate : 93.750 FPS (512 SPF)
Bit depth : 24 bits
Compression mode : Lossless / Lossy / Lossy
Stream size : 4.47 GiB (28%)
Title : Ingles DTS-HD MA/ES Matrix/Core 7.1/6.1/5.1 1509/1509 kbps Bluray 4k
Language : English
Default : No
Forced : No

Text #1
ID : 4
Format : UTF-8
Codec ID : S_TEXT/UTF8
Codec ID/Info : UTF-8 Plain Text
Duration : 1 h 45 min
Bit rate : 40 b/s
Count of elements : 1188
Stream size : 31.0 KiB (0%)
Title : Latino
Language : Latin
Default : No
Forced : No

Text #2
ID : 5
Format : PGS
Muxing mode : zlib
Codec ID : S_HDMV/PGS
Codec ID/Info : Picture based subtitle format used on BDs/HD-DVDs
Duration : 1 h 52 min
Bit rate : 7 347 b/s
Count of elements : 2374
Stream size : 5.90 MiB (0%)
Title : Latino
Language : Latin
Default : No
Forced : No

Text #3
ID : 6
Format : PGS
Muxing mode : zlib
Codec ID : S_HDMV/PGS
Codec ID/Info : Picture based subtitle format used on BDs/HD-DVDs
Duration : 1 h 45 min
Bit rate : 10.6 kb/s
Count of elements : 3058
Stream size : 7.98 MiB (0%)
Title : Ingles
Language : English
Default : No
Forced : No



http://i.picasion.com/resize86/9844545824b3026d793bc689d2ca154c.jpg

https://4.bp.blogspot.com/-bHKKpks6NVo/WnukpURVpBI/AAAAAAAACfg/Hux6Lj636JsJV4ZR06HSXhVnU48UjC2YACLcBGAs/s1600/1.png

https://3.bp.blogspot.com/-YbhMe2l2uNc/WnukpcnGMEI/AAAAAAAACfU/fizXFEtkOPMWTUJwIpvhwTOFulhMBANiwCLcBGAs/s1600/2.png

https://2.bp.blogspot.com/-5lU9IVr6Ag4/WnukqKtVhHI/AAAAAAAACfc/piZ0msBbAxgKC_EBYlOmq4lRRcAQnufkwCLcBGAs/s1600/3.png

https://4.bp.blogspot.com/-5F1sTVujAhs/WnukqttBRDI/AAAAAAAACfk/nfQ3AbCTDm0x8b7kFC0k97rqAwXqOQjAACLcBGAs/s1600/4.png

https://4.bp.blogspot.com/--lplHXsiino/Wnukq1XEAJI/AAAAAAAACfo/l8efhvA-Sho-LsL1koSwNuJJOh7_4hwhQCLcBGAs/s1600/5.png

DESCARGA


Links Intercambiables

https://3.bp.blogspot.com/-n3vyYws6udw/WYitgMOaduI/AAAAAAAA1L0/PE1jBg4l_7I2Cp9SjlekwnTQbXZwrQo3wCLcBGAs/s1600/1FICHIER-BANNER.png
**Hidden Content: Check the thread to see hidden data.**

http://2.bp.blogspot.com/-nXtN7MPZ_A8/VZab6hvUJRI/AAAAAAAAsNY/1VAgQ63UKOQ/s1600/MEGA-BANNER.png
**Hidden Content: Check the thread to see hidden data.**

http://3.bp.blogspot.com/-Yh5P3OSnxaQ/UOkNsmy5n6I/AAAAAAAAFG8/J9B4jZodRqM/s1600/UPLOADED_BANNER.png
**Hidden Content: Check the thread to see hidden data.**

https://1.bp.blogspot.com/-PE8m5kK7vYo/WJoNpVnuMnI/AAAAAAAA0go/jTlWOR0KOCEoUUzcNlzAqSRBkzh8nRT4QCLcB/s1600/OPENLOAD.png
**Hidden Content: Check the thread to see hidden data.**

https://4.bp.blogspot.com/-qqShfCTogHE/WaxnWvr1vHI/AAAAAAAAAL0/aTU3k5gHeNYqWMWsFEdXHF722AwHK0bewCLcBGAs/s1600/contrase%25C3%25B1a%2Bclub%2Bhd.jpg




www.club-hd.com

virus619
08/02/2018, 06:54
Desc_g_

cpola
08/02/2018, 07:10
Gracias

coyote81
08/02/2018, 08:35
muchass graciasss

Josiba
08/02/2018, 08:54
Desc_g_

hombrelobo
08/02/2018, 11:00
gracias descargando

pepititoma
08/02/2018, 11:10
Gracias.

JCAvila
08/02/2018, 11:54
gracias!

darthritchie
08/02/2018, 12:44
MUchas gracias!

carlos2018
08/02/2018, 13:16
Gracias

eabadia
08/02/2018, 13:26
bajando

itofeddy
08/02/2018, 14:55
Desc_g_

flujo
08/02/2018, 17:40
gracias

SAAEDVI
08/02/2018, 20:06
me gusta

LAPICADERA
08/02/2018, 21:21
gracias

fewac
09/02/2018, 02:40
gracias!!!

cripp
09/02/2018, 11:11
Gracias por compartir

jcobos
09/02/2018, 11:35
graciasss!!!!!!!1

MasterSombrA
09/02/2018, 13:46
gracias de lujo

PATRICIOG
09/02/2018, 20:33
Desc_g_

jramirez05
09/02/2018, 23:41
gracias

novatoxp
10/02/2018, 05:27
Desc_g_

jucarperdor
10/02/2018, 11:20
GRACIAS.

obstinado
10/02/2018, 13:51
Desc_g_

samuelabad
10/02/2018, 16:29
Gracoas

juniorgarabo
10/02/2018, 20:01
Desc_g_

hedipecora
11/02/2018, 15:35
muchas gracias

kano
11/02/2018, 15:52
gracias :D

gabrielx5
15/02/2018, 19:46
gracias

kill_b911
16/02/2018, 21:04
Desc_g_

fresco
18/02/2018, 01:42
Desc_g_

tsubasa100
20/02/2018, 22:05
Gracias

msr.1899
21/02/2018, 13:06
gracias.

LANINADULCE
21/02/2018, 23:42
Desc_g_

Edu_Alvarado
14/03/2018, 11:20
gracias

EmanuelA87
20/03/2018, 20:46
Gracias!!!

spamthiss
09/04/2018, 02:31
Gracias!

joelmax18
09/04/2018, 21:07
gracias

betarte00
19/04/2018, 18:08
Gracias!!!!!

evangeliox
22/04/2018, 18:06
Desc_g_

fernando4555
29/04/2018, 21:22
Desc_g_

ecuavideos
30/04/2018, 10:44
gracias