PDA

Ver la versión completa : The Girl On The Train (2016) 2160p 4k UHD HDR Dual Latino-Inglés [Subt. Esp] (Thriller. Intriga)



Brady
08/02/2018, 06:13
https://3.bp.blogspot.com/-5wIxS8jhCAo/WnugKteYEDI/AAAAAAAACe4/RrfYVyoFUsYbtSTRm5lBzpE55anmEF2YgCLcBGAs/s1600/aaa.jpg


https://1.bp.blogspot.com/-s6PuW6TawPg/WaxnWg-5pPI/AAAAAAAAALs/OMh7vMt1tkAKRT8kSue_zxgG64KJ0Ss1ACLcBGAs/s1600/ficha%2Btecnica%2Bclub.jpg



Título Original: The Girl On The Train
Año: 2016
Duración: 112 min.
País: https://www.filmaffinity.com/imgs/countries/US.jpg United States
Director: Tate Taylor
Guion: Erin Cressida Wilson (Novela: Paula Hawkins)
Reparto: Emily Blunt, Rebecca Ferguson, Haley Bennett, Luke Evans, Edgar Ramirez, Justin Theroux, Allison Janney, Lisa Kudrow, Laura Prepon, Lana Young, Marko Caka, Danielle M. Williamson, Sidney Beitz, Darren Goldstein
Productora: DreamWorks Studios / Amblin Partners / Marc Platt Productions / Reliance Entertainment
Género: Thriller. Intriga | Trenes/Metros. Alcoholismo. Drama psicológico. Thriller psicológico


SINOPSIS
Rachel (Emily Blunt) es una mujer devastada por su reciente divorcio que dedica cada mañana de camino a su trabajo a fantasear sobre la vida de una pareja aparentemente perfecta que vive en una casa por la que su tren pasa cada día. Pero una mañana Rachel es testigo desde la ventana del tren de un impactante suceso y se ve involucrada en el misterio que ella misma revela... Adaptación del best seller homónimo de Paula Hawkins.

TRAILER

https://www.youtube.com/watch?v=I4FAAzwXGL8

Datos Técnicos
Video:
MPEGH HEVC / 2160p / High Profile 5.1 / 14.1 mbps

Audio:
Español Latino / DTS 5.1/ 768 kbps / 48kHz / Bluray 4k
Inglés / DTS-HD X/MA/Core 7.1/5.1 / 3454/3454/1509 kbps / 48kHz / Bluray 4k

Subs:
Español Latino / SubRip / Bluray 4k
Español Latino Forzados / SubRip / Bluray 4k
Español Latino / Sup / Bluray 4k
Español Latino Forzados / Sup / Bluray 4k
Inglés / Sup / Bluray 4k


General
Unique ID : 197407595633777471666128658808026758346 (0x948351E96D3870C49A0A4C6F3930FCCA)
Format : Matroska
Format version : Version 4 / Version 2
File size : 14.3 GiB
Duration : 1 h 52 min
Overall bit rate : 18.3 Mb/s
Encoded date : UTC 2018-02-04 09:09:24
Writing application : mkvmerge v9.9.0 ('Pick Up') 64bit
Writing library : libebml v1.3.4 libmatroska v1.4.5
Uploader : Brady
Web : www.club-hd.com

Video
ID : 1
Format : HEVC
Format/Info : High Efficiency Video Coding
Format profile : Main 10@L5.1@High
Codec ID : V_MPEGH/ISO/HEVC
Duration : 1 h 52 min
Bit rate : 14.1 Mb/s
Width : 3 840 pixels
Height : 2 076 pixels
Display aspect ratio : 1.85:1
Frame rate mode : Constant
Frame rate : 23.976 (24000/1001) FPS
Color space : YUV
Chroma subsampling : 4:2:0 (Type 2)
Bit depth : 10 bits
Bits/(Pixel*Frame) : 0.074
Stream size : 11.0 GiB (77%)
Writing library : x265 2.6 22-ff02513b92c0:[Windows][GCC 6.3.0][64 bit] 10bit
Encoding settings : cpuid=1173503 / frame-threads=4 / numa-pools=16 / wpp / no-pmode / no-pme / no-psnr / no-ssim / log-level=2 / input-csp=1 / input-res=3840x2076 / interlace=0 / total-frames=161285 / level-idc=51 / high-tier=1 / uhd-bd=0 / ref=4 / no-allow-non-conformance / repeat-headers / annexb / aud / hrd / info / hash=0 / no-temporal-layers / no-open-gop / min-keyint=1 / keyint=24 / gop-lookahead=0 / bframes=4 / b-adapt=2 / b-pyramid / bframe-bias=0 / rc-lookahead=25 / lookahead-slices=4 / scenecut=40 / radl=0 / no-intra-refresh / ctu=64 / min-cu-size=8 / rect / no-amp / max-tu-size=32 / tu-inter-depth=1 / tu-intra-depth=1 / limit-tu=0 / rdoq-level=2 / dynamic-rd=0.00 / no-ssim-rd / signhide / no-tskip / nr-intra=0 / nr-inter=0 / no-constrained-intra / no-strong-intra-smoothing / max-merge=3 / limit-refs=3 / limit-modes / me=3 / subme=3 / merange=57 / temporal-mvp / weightp / no-weightb / no-analyze-src-pics / deblock=-3:-3 / no-sao / no-sao-non-deblock / rd=4 / no-early-skip / rskip / no-fast-intra / no-tskip-fast / no-cu-lossless / no-b-intra / no-splitrd-skip / rdpenalty=0 / psy-rd=2.00 / psy-rdoq=1.00 / no-rd-refine / no-lossless / cbqpoffs=0 / crqpoffs=0 / rc=crf / crf=17.0 / qcomp=0.60 / qpstep=4 / stats-write=0 / stats-read=0 / vbv-maxrate=160000 / vbv-bufsize=160000 / vbv-init=0.9 / crf-max=0.0 / crf-min=0.0 / ipratio=1.40 / pbratio=1.30 / aq-mode=1 / aq-strength=1.00 / cutree / zone-count=0 / no-strict-cbr / qg-size=32 / no-rc-grain / qpmax=69 / qpmin=0 / no-const-vbv / sar=1 / overscan=0 / videoformat=5 / range=0 / colorprim=9 / transfer=16 / colormatrix=9 / chromaloc=1 / chromaloc-top=2 / chromaloc-bottom=2 / display-window=0 / master-display=G(13250,34500)B(7500,3000)R(34000,16000)WP(15635,16450)L(10000000,50) / max-cll=873,60 / min-luma=0 / max-luma=1023 / log2-max-poc-lsb=8 / vui-timing-info / vui-hrd-info / slices=1 / no-opt-qp-pps / no-opt-ref-list-length-pps / no-multi-pass-opt-rps / scenecut-bias=0.05 / no-opt-cu-delta-qp / no-aq-motion / hdr / hdr-opt / no-dhdr10-opt / analysis-save=(null) / analysis-load=(null) / analysis-reuse-level=5 / scale-factor=0 / refine-intra=0 / refine-inter=0 / refine-mv=0 / no-limit-sao / ctu-info=0 / no-lowpass-dct / refine-mv-type=0 / copy-pic=1
Language : English
Default : Yes
Forced : No
Color range : Limited
Color primaries : BT.2020
Transfer characteristics : PQ
Matrix coefficients : BT.2020 non-constant
Mastering display color primaries : R: x=0.680000 y=0.320000, G: x=0.265000 y=0.690000, B: x=0.150000 y=0.060000, White point: x=0.312700 y=0.329000
Mastering display luminance : min: 0.0050 cd/m2, max: 1000.0000 cd/m2
Maximum Content Light Level : 873 cd/m2
Maximum Frame-Average Light Level : 60 cd/m2

Audio #1
ID : 2
Format : DTS
Format/Info : Digital Theater Systems
Codec ID : A_DTS
Duration : 1 h 52 min
Bit rate mode : Constant
Bit rate : 768 kb/s
Channel(s) : 6 channels
Channel positions : Front: L C R, Side: L R, LFE
Sampling rate : 48.0 kHz
Frame rate : 93.750 FPS (512 SPF)
Bit depth : 24 bits
Compression mode : Lossy
Stream size : 616 MiB (4%)
Title : Latino DTS 5.1 768 kbps Bluray 4k
Language : Latin
Default : Yes
Forced : No

Audio #2
ID : 3
Format : DTS
Format/Info : Digital Theater Systems
Format profile : X / MA / Core
Codec ID : A_DTS
Duration : 1 h 52 min
Bit rate mode : Variable / Variable / Constant
Bit rate : 3 454 kb/s / 3 454 kb/s / 1 509 kb/s
Channel(s) : Object Based / 8 channels / 6 channels
Channel positions : Object Based / Front: L C R, Side: L R, Back: L R, LFE / Front: L C R, Side: L R, LFE
Sampling rate : / 48.0 kHz / 48.0 kHz
Frame rate : 93.750 FPS (512 SPF)
Bit depth : / 24 bits / 24 bits
Compression mode : / Lossless / Lossy
Stream size : 2.70 GiB (19%)
Title : Ingles DTS-HD X/MA/Core 7.1/5.1 1509 kbps Bluray 4k
Language : English
Default : No
Forced : No

Text #1
ID : 4
Format : UTF-8
Codec ID : S_TEXT/UTF8
Codec ID/Info : UTF-8 Plain Text
Duration : 1 h 44 min
Bit rate : 43 b/s
Count of elements : 1168
Stream size : 33.6 KiB (0%)
Title : Latino
Language : Latin
Default : No
Forced : No

Text #2
ID : 5
Format : UTF-8
Codec ID : S_TEXT/UTF8
Codec ID/Info : UTF-8 Plain Text
Duration : 1 h 15 min
Bit rate : 0 b/s
Count of elements : 10
Stream size : 229 Bytes (0%)
Title : Forzados
Language : Latin
Default : Yes
Forced : No

Text #3
ID : 6
Format : PGS
Muxing mode : zlib
Codec ID : S_HDMV/PGS
Codec ID/Info : Picture based subtitle format used on BDs/HD-DVDs
Duration : 1 h 51 min
Bit rate : 7 968 b/s
Count of elements : 2338
Stream size : 6.33 MiB (0%)
Title : Latino
Language : Latin
Default : No
Forced : No

Text #4
ID : 7
Format : PGS
Muxing mode : zlib
Codec ID : S_HDMV/PGS
Codec ID/Info : Picture based subtitle format used on BDs/HD-DVDs
Duration : 1 h 45 min
Bit rate : 69 b/s
Count of elements : 22
Stream size : 53.8 KiB (0%)
Title : Forzados
Language : Latin
Default : No
Forced : No

Text #5
ID : 8
Format : PGS
Muxing mode : zlib
Codec ID : S_HDMV/PGS
Codec ID/Info : Picture based subtitle format used on BDs/HD-DVDs
Duration : 1 h 45 min
Bit rate : 10.7 kb/s
Count of elements : 2642
Stream size : 8.07 MiB (0%)
Title : Ingles
Language : English
Default : No
Forced : No



http://i.picasion.com/resize86/9844545824b3026d793bc689d2ca154c.jpg

https://2.bp.blogspot.com/-W58x7DOhtCs/WngvD5g4wrI/AAAAAAAACb0/Sduc531O_cYdX1JEwXIUb3_oKFx1WTq5ACLcBGAs/s1600/1.png

https://1.bp.blogspot.com/-DQSP19CzZuM/WngvEA9RBrI/AAAAAAAACb8/XrjdU3puIfcda1GvXPYuTRtpDdK8LXHeQCLcBGAs/s1600/2.png

https://1.bp.blogspot.com/-WD_wuT2raiI/WngvD0E9XjI/AAAAAAAACb4/-JhKfYiCHcE-Rrb5DrieRz_OskJ16bfbwCLcBGAs/s1600/3.png

https://4.bp.blogspot.com/-JCrXw2xVZ-w/WngvEvN5OcI/AAAAAAAACcA/y4RENWVg9rsACFM50mJiInwfl13baUY6wCLcBGAs/s1600/4.png

https://1.bp.blogspot.com/-Enf9A-_usLY/WngvGVesU3I/AAAAAAAACcE/XLXZ7yy98VchBQoe603gMePXk3mTtS7_ACLcBGAs/s1600/5.png

DESCARGA


Links Intercambiables

https://3.bp.blogspot.com/-n3vyYws6udw/WYitgMOaduI/AAAAAAAA1L0/PE1jBg4l_7I2Cp9SjlekwnTQbXZwrQo3wCLcBGAs/s1600/1FICHIER-BANNER.png
**Hidden Content: Check the thread to see hidden data.**

http://2.bp.blogspot.com/-nXtN7MPZ_A8/VZab6hvUJRI/AAAAAAAAsNY/1VAgQ63UKOQ/s1600/MEGA-BANNER.png
**Hidden Content: Check the thread to see hidden data.**

http://3.bp.blogspot.com/-Yh5P3OSnxaQ/UOkNsmy5n6I/AAAAAAAAFG8/J9B4jZodRqM/s1600/UPLOADED_BANNER.png
**Hidden Content: Check the thread to see hidden data.**

https://1.bp.blogspot.com/-PE8m5kK7vYo/WJoNpVnuMnI/AAAAAAAA0go/jTlWOR0KOCEoUUzcNlzAqSRBkzh8nRT4QCLcB/s1600/OPENLOAD.png
**Hidden Content: Check the thread to see hidden data.**

https://4.bp.blogspot.com/-qqShfCTogHE/WaxnWvr1vHI/AAAAAAAAAL0/aTU3k5gHeNYqWMWsFEdXHF722AwHK0bewCLcBGAs/s1600/contrase%25C3%25B1a%2Bclub%2Bhd.jpg




www.club-hd.com

virus619
08/02/2018, 06:55
Desc_g_

cpola
08/02/2018, 07:10
Gracias

muruagam
08/02/2018, 07:39
Desc_g_

Josiba
08/02/2018, 08:55
Desc_g_

hombrelobo
08/02/2018, 11:01
gracias

JCAvila
08/02/2018, 11:54
gracias!

itofeddy
08/02/2018, 14:47
Desc_g_:pulgar2:

flujo
08/02/2018, 17:41
gracias

bravo
08/02/2018, 17:59
gracias

pamtronii
08/02/2018, 18:54
Con el problema de que los links 2 y 3 en open load están incompletos revise uploaded y ahí están perfectos gracias por el aporte

pamtronii
08/02/2018, 20:16
Link 2 y 3 en uploaded también incompletos o no se descargan bien de openload y uploaded de todos modos gracias

SAAEDVI
08/02/2018, 21:35
me gusta

videma
08/02/2018, 22:06
gracias

fewac
09/02/2018, 02:39
Gracias!!!

cripp
09/02/2018, 11:13
Gracias por compartir

matiasivanrivero
09/02/2018, 13:17
Desc_g_

novatoxp
10/02/2018, 05:26
Desc_g_

miguelcantuc
10/02/2018, 16:37
Muchas gracias amigos...

samuelabad
10/02/2018, 16:52
Gracias

juniorgarabo
10/02/2018, 20:01
Desc_g_

obstinado
10/02/2018, 20:25
Desc_g_

jclogan2k
11/02/2018, 10:52
gracias

hedipecora
11/02/2018, 15:34
muchas gracias

guinoalmaraz
11/02/2018, 18:07
gracias

tsubasa100
20/02/2018, 22:07
Gracias

msr.1899
21/02/2018, 13:07
gracias!

LANINADULCE
21/02/2018, 23:41
Desc_g_

marianituns
25/02/2018, 23:24
Gracias!

leuco88
01/03/2018, 21:37
Gracias

kikusa
07/03/2018, 15:47
Gracias

joelmax18
09/04/2018, 21:37
gracias

totofloyd
17/04/2018, 12:41
gracias

sandovallucio
20/04/2018, 02:57
Desc_g_

ecuavideos
22/06/2018, 12:01
gracias

Prem1er
16/08/2018, 05:04
gracias por el aporte!

Rod837
23/08/2018, 13:20
muy buena peli

sosalexfame
02/10/2018, 19:17
gracias