PDA

Ver la versión completa : The Purge: Anarchy (2014) 2160p 4k UHD HDR Dual Latino-Inglés [Subt. Esp] (Thriller. Terror)



Brady
02/02/2018, 16:43
https://2.bp.blogspot.com/-xoP-tMr5b-g/WnQkMB32VKI/AAAAAAAACWs/w4lQGlQV4a8bZ-erAPgO71y9NnPQiY-QACLcBGAs/s1600/Purg2.jpg


https://1.bp.blogspot.com/-s6PuW6TawPg/WaxnWg-5pPI/AAAAAAAAALs/OMh7vMt1tkAKRT8kSue_zxgG64KJ0Ss1ACLcBGAs/s1600/ficha%2Btecnica%2Bclub.jpg



Título Original: The Purge: Anarchy
Año: 2014
Duración: 103 min.
País: https://www.filmaffinity.com/imgs/countries/US.jpg United States
Director: James DeMonaco
Guion: James DeMonaco
Reparto: Frank Grillo, Carmen Ejogo, Zach Gilford, Kiele Sanchez, Zoe Soul, Justina Machado, John Beasley, Jack Conley, Noel Gugliemi, Castulo Guerra, Michael Kenneth Williams, Edwin Hodge, Keith Stanfield, Chad Morgan, Roberta Valderrama, Niko Nicotera, Bel Hernandez, Lily Knight, Cortney Palm
Productora: Blumhouse Productions / Platinum Dunes / Universal Pictures / Why Not Productions
Género: Thriller. Terror. Acción | Thriller futurista. Distopía. Crimen. Sátira. Venganza. Supervivencia. Secuela


SINOPSIS
El crimen hace estragos en Estados Unidos y las cárceles están llenas. El gobierno decide que una noche al año, durante doce horas, cualquier actividad criminal, incluso el asesinato, será legal. No se puede llamar a la policía, los hospitales no admiten pacientes, los ciudadanos deben arreglárselas solos porque cometer un delito no está castigado. Durante esa noche plagada de peligros, 5 personas que se han quedado fuera de sus casas deciden juntarse para poder enfrentarse mejor a los ciudadanos salvajes que buscan calmar sus ansias de violencia.

TRAILER

https://www.youtube.com/watch?v=afytVccuOS8

Datos Técnicos
Video:
MPEGH HEVC / 2160p / High Profile 5.1 / 19.7 mbps

Audio:
Español Latino / DTS 5.1/ 768 kbps / 48kHz / Bluray 4k
Inglés / DTS-HD X/MA/Core 7.1/5.1 / 5098/5098/1509 kbps / 48kHz / Bluray 4k

Subs:
Español Latino / Sup / Bluray 4k
Español Latino Forzados / Sup / Bluray 4k
Inglés / Sup / Bluray 4k


General
Unique ID : 193357613659113251687431920227547008920 (0x9177526247B0F86CB46D4DE29B7ACF98)
Format : Matroska
Format version : Version 4 / Version 2
File size : 18.5 GiB
Duration : 1 h 43 min
Overall bit rate : 25.6 Mb/s
Encoded date : UTC 2018-02-02 02:04:22
Writing application : mkvmerge v9.9.0 ('Pick Up') 64bit
Writing library : libebml v1.3.4 + libmatroska v1.4.5
Uploader : Brady
Web : www.club-hd.com

Video
ID : 1
Format : HEVC
Format/Info : High Efficiency Video Coding
Format profile : Main 10@L5.1@High
Codec ID : V_MPEGH/ISO/HEVC
Duration : 1 h 43 min
Bit rate : 19.7 Mb/s
Width : 3 840 pixels
Height : 1 600 pixels
Display aspect ratio : 2.40:1
Frame rate mode : Constant
Frame rate : 23.976 (24000/1001) FPS
Color space : YUV
Chroma subsampling : 4:2:0 (Type 2)
Bit depth : 10 bits
Bits/(Pixel*Frame) : 0.134
Stream size : 14.3 GiB (77%)
Writing library : x265 2.6+4-f7498acb3874:[Windows][GCC 7.2.0][64 bit] 10bit
Encoding settings : cpuid=1173503 / frame-threads=4 / numa-pools=16 / wpp / no-pmode / no-pme / no-psnr / no-ssim / log-level=2 / input-csp=1 / input-res=3840x1600 / interlace=0 / total-frames=148937 / level-idc=51 / high-tier=1 / uhd-bd=0 / ref=4 / no-allow-non-conformance / repeat-headers / annexb / aud / hrd / info / hash=0 / no-temporal-layers / no-open-gop / min-keyint=24 / keyint=240 / bframes=4 / b-adapt=2 / b-pyramid / bframe-bias=0 / rc-lookahead=25 / lookahead-slices=4 / scenecut=40 / no-intra-refresh / ctu=64 / min-cu-size=8 / rect / no-amp / max-tu-size=32 / tu-inter-depth=1 / tu-intra-depth=1 / limit-tu=0 / rdoq-level=2 / dynamic-rd=0.00 / no-ssim-rd / signhide / no-tskip / nr-intra=0 / nr-inter=0 / no-constrained-intra / no-strong-intra-smoothing / max-merge=3 / limit-refs=3 / limit-modes / me=3 / subme=3 / merange=57 / temporal-mvp / weightp / no-weightb / no-analyze-src-pics / deblock=-3:-3 / no-sao / no-sao-non-deblock / rd=4 / no-early-skip / rskip / no-fast-intra / no-tskip-fast / no-cu-lossless / no-b-intra / no-splitrd-skip / rdpenalty=0 / psy-rd=2.00 / psy-rdoq=1.00 / no-rd-refine / analysis-reuse-mode=0 / no-lossless / cbqpoffs=0 / crqpoffs=0 / rc=crf / crf=17.0 / qcomp=0.60 / qpstep=4 / stats-write=0 / stats-read=0 / vbv-maxrate=160000 / vbv-bufsize=160000 / vbv-init=0.9 / crf-max=0.0 / crf-min=0.0 / ipratio=1.40 / pbratio=1.30 / aq-mode=1 / aq-strength=1.00 / cutree / zone-count=0 / no-strict-cbr / qg-size=32 / no-rc-grain / qpmax=69 / qpmin=0 / no-const-vbv / sar=1 / overscan=0 / videoformat=5 / range=0 / colorprim=9 / transfer=16 / colormatrix=9 / chromaloc=1 / chromaloc-top=2 / chromaloc-bottom=2 / display-window=0 / master-display=G(13250,34500)B(7500,3000)R(34000,16000)WP(15635,16450)L(10000000,50) / max-cll=1000,814 / min-luma=0 / max-luma=1023 / log2-max-poc-lsb=8 / vui-timing-info / vui-hrd-info / slices=1 / opt-qp-pps / opt-ref-list-length-pps / no-multi-pass-opt-rps / scenecut-bias=0.05 / no-opt-cu-delta-qp / no-aq-motion / hdr / hdr-opt / no-dhdr10-opt / analysis-reuse-level=5 / scale-factor=0 / refine-intra=0 / refine-inter=0 / refine-mv=0 / no-limit-sao / ctu-info=0 / no-lowpass-dct / refine-mv-type=0 / copy-pic=1
Language : English
Default : Yes
Forced : No
Color range : Limited
Color primaries : BT.2020
Transfer characteristics : PQ
Matrix coefficients : BT.2020 non-constant
Mastering display color primaries : R: x=0.680000 y=0.320000, G: x=0.265000 y=0.690000, B: x=0.150000 y=0.060000, White point: x=0.312700 y=0.329000
Mastering display luminance : min: 0.0050 cd/m2, max: 1000.0000 cd/m2
Maximum Content Light Level : 1000 cd/m2
Maximum Frame-Average Light Level : 814 cd/m2

Audio #1
ID : 2
Format : DTS
Format/Info : Digital Theater Systems
Codec ID : A_DTS
Duration : 1 h 43 min
Bit rate mode : Constant
Bit rate : 768 kb/s
Channel(s) : 6 channels
Channel positions : Front: L C R, Side: L R, LFE
Sampling rate : 48.0 kHz
Frame rate : 93.750 FPS (512 SPF)
Bit depth : 24 bits
Compression mode : Lossy
Stream size : 569 MiB (3%)
Title : Latino DTS 5.1 768 kbps Bluray 4k
Language : Latin
Default : Yes
Forced : No

Audio #2
ID : 3
Format : DTS
Format/Info : Digital Theater Systems
Format profile : X / MA / Core
Codec ID : A_DTS
Duration : 1 h 43 min
Bit rate mode : Variable / Variable / Constant
Bit rate : 5098/5098/1509 kb/s
Channel(s) : Object Based / 8 channels / 6 channels
Channel positions : Object Based / Front: L C R, Side: L R, Back: L R, LFE / Front: L C R, Side: L R, LFE
Sampling rate : / 48.0 kHz / 48.0 kHz
Frame rate : 93.750 FPS (512 SPF)
Bit depth : / 24 bits / 24 bits
Compression mode : / Lossless / Lossy
Stream size : 3.69 GiB (20%)
Title : Ingles DTS-HD X/MA/Core 7.1/5.1 1509 kbps Bluray 4k
Language : English
Default : No
Forced : No

Text #1
ID : 4
Format : PGS
Muxing mode : zlib
Codec ID : S_HDMV/PGS
Codec ID/Info : Picture based subtitle format used on BDs/HD-DVDs
Duration : 1 h 35 min
Bit rate : 9 801 b/s
Count of elements : 2400
Stream size : 6.71 MiB (0%)
Title : Latino
Language : Latin
Default : No
Forced : No

Text #2
ID : 5
Format : PGS
Muxing mode : zlib
Codec ID : S_HDMV/PGS
Codec ID/Info : Picture based subtitle format used on BDs/HD-DVDs
Duration : 1 h 30 min
Bit rate : 99 b/s
Count of elements : 24
Stream size : 65.8 KiB (0%)
Title : Forzados
Language : Latin
Default : Yes
Forced : No

Text #3
ID : 6
Format : PGS
Muxing mode : zlib
Codec ID : S_HDMV/PGS
Codec ID/Info : Picture based subtitle format used on BDs/HD-DVDs
Duration : 1 h 34 min
Bit rate : 13.5 kb/s
Count of elements : 2958
Stream size : 9.15 MiB (0%)
Title : Ingles
Language : English
Default : No
Forced : No



http://i.picasion.com/resize86/9844545824b3026d793bc689d2ca154c.jpg

https://1.bp.blogspot.com/-uXkwD5DlfpA/WnQpLkJ0nBI/AAAAAAAACX0/Y6hNN8EaomoF7kAVl7QmEtK2AHcLcDnGgCLcBGAs/s1600/6.png

https://3.bp.blogspot.com/-3jP-M8Av5yk/WnQpL-bBXAI/AAAAAAAACX4/bozykIwNPrE0QmPJMB-vuODC-khANrEQwCLcBGAs/s1600/7.png

https://2.bp.blogspot.com/-CvjniMdcih8/WnQpL7a7DZI/AAAAAAAACX8/RreSkGklJ6EgexTUw0-c1fmoUTmlVx9YgCLcBGAs/s1600/8.png

https://3.bp.blogspot.com/-mvW7FhiGwhY/WnQpN8iyavI/AAAAAAAACYE/Ie4ZEFZVR2AqZhihWLesdOodhDQpWnfbQCLcBGAs/s1600/9.png

https://1.bp.blogspot.com/-efMRRUar7T4/WnQpIQeNCZI/AAAAAAAACXQ/g9uXn4wAsJ8xNnOgJSHJ7J0_dqZmTnHNwCLcBGAs/s1600/10.png

DESCARGA


Links Intercambiables

https://3.bp.blogspot.com/-n3vyYws6udw/WYitgMOaduI/AAAAAAAA1L0/PE1jBg4l_7I2Cp9SjlekwnTQbXZwrQo3wCLcBGAs/s1600/1FICHIER-BANNER.png
**Hidden Content: Check the thread to see hidden data.**

http://2.bp.blogspot.com/-nXtN7MPZ_A8/VZab6hvUJRI/AAAAAAAAsNY/1VAgQ63UKOQ/s1600/MEGA-BANNER.png
**Hidden Content: Check the thread to see hidden data.**

http://3.bp.blogspot.com/-Yh5P3OSnxaQ/UOkNsmy5n6I/AAAAAAAAFG8/J9B4jZodRqM/s1600/UPLOADED_BANNER.png
**Hidden Content: Check the thread to see hidden data.**

https://1.bp.blogspot.com/-PE8m5kK7vYo/WJoNpVnuMnI/AAAAAAAA0go/jTlWOR0KOCEoUUzcNlzAqSRBkzh8nRT4QCLcB/s1600/OPENLOAD.png
**Hidden Content: Check the thread to see hidden data.**

https://4.bp.blogspot.com/-qqShfCTogHE/WaxnWvr1vHI/AAAAAAAAAL0/aTU3k5gHeNYqWMWsFEdXHF722AwHK0bewCLcBGAs/s1600/contrase%25C3%25B1a%2Bclub%2Bhd.jpg




www.club-hd.com

Josiba
02/02/2018, 17:03
Desc_g_

cpola
02/02/2018, 17:24
Gracias

juniorgarabo
02/02/2018, 17:26
Desc_g_

mario e
02/02/2018, 18:23
Desc_g_

virus619
02/02/2018, 18:48
Desc_g_

josefo08
02/02/2018, 19:13
:dplgar:

JCAvila
02/02/2018, 23:20
gracias!

flujo
03/02/2018, 00:18
gracias

LANINADULCE
03/02/2018, 02:05
Desc_g_

joelmax18
05/02/2018, 00:09
gracias

fewac
05/02/2018, 01:07
Gracias!!!

vince
05/02/2018, 13:24
descargando

novatoxp
06/02/2018, 05:02
Desc_g_

cripp
06/02/2018, 11:21
Gracias por compartir

tsubasa100
10/02/2018, 16:40
Gracias

conejo
11/02/2018, 12:56
gracias

miguelcantuc
11/02/2018, 14:31
Muchas gracias amigos...

Andreslvl
12/02/2018, 12:39
Desc_g_

gabrielx5
17/02/2018, 09:06
gracias

msr.1899
21/02/2018, 13:26
Gracias!!!

sosalexfame
01/03/2018, 13:55
gracias

ecuavideos
04/05/2018, 13:00
gracias

x3ro
09/06/2018, 17:36
muchas gracias

arcade06
11/06/2018, 11:51
Gracias Revolver21!