PDA

Ver la versión completa : Warm Bodies (2013) 2160p 4k UHD HDR Dual Latino-Inglés [Subt. Esp] (Comedia. Romance. Fantástico. Terror)



Yonatan
27/01/2018, 14:36
https://1.bp.blogspot.com/-x3GvuyaPOiA/Wmy9zlfjwpI/AAAAAAAAGCg/ZjOZJjLvj34GZx3GLnKzTU-HLwNjMIJlgCLcBGAs/s1600/Warm%2BBodies.jpg





★ FICHA TÉCNICA ★


Título original: Warm Bodies http://3.bp.blogspot.com/-kVPz2Mj8bDI/VVpVGDAG5LI/AAAAAAAAq38/aZAZRxEd5d0/s1600/IMDB.png (http://www.imdb.com/title/tt1588173/?ref_=nv_sr_1)
Año: 2013
Duración: 98 Minutos
País: Estados Unidos
Director: Jonathan Levine
Reparto: Nicholas Hoult, Teresa Palmer, John Malkovich, Rob Corddry, Analeigh Tipton, Dave Franco, Cory Hardrict, Daniel Rindress-Kay, Vincent Leclerc, Alec Bourgeois, Zavier Vaillancourt, Clifford LeDuc-Vaillancourt, Adam Driscoll, Billie Calmeau
Productora: Make Movies / Mandeville Films / Summit Entertainment
Género: Comedia. Romance. Fantástico. Terror







★ SINOPSIS ★



R, un zombi con problemas existenciales, entabla una extraña amistad con la novia de una de sus víctimas. Esta insólita relación provoca una reacción en cadena que cambia su vida, la de sus iguales y, probablemente, la de todo el planeta.






http://2.bp.blogspot.com/-3fND75w-wM8/UElTeD3C0LI/AAAAAAAAVcQ/rCj0E1IzzHo/s1600/YOUTUBE_LOGO.png



https://www.youtube.com/watch?v=7qzUGkkL_tY






★ CAPTURAS ★


https://1.bp.blogspot.com/-tvZShxvdUPQ/WmzGNMdYO_I/AAAAAAAAGCw/zlam90W4NuQVn3xez5XJbsSorGDV4-VawCLcBGAs/s1600/1.jpg

https://3.bp.blogspot.com/-UCukMgpNEdI/WmzGNFrTuoI/AAAAAAAAGC0/1Ewig7Z9sfsR5fTLKxsuocwCqYJH1iS4ACLcBGAs/s1600/2.jpg

https://1.bp.blogspot.com/-wiNjbZ1--Pg/WmzGNYm7ahI/AAAAAAAAGC4/4F1n4T4aohUNvrIROJoHgcDpnMxMCyEgQCLcBGAs/s1600/3.jpg

https://1.bp.blogspot.com/-iqCU4Tj-Kqg/WmzGNtvuhGI/AAAAAAAAGC8/EKblvOCTHe8q_zDPXV9ILCgpv-2zgPB3wCLcBGAs/s1600/4.jpg

https://2.bp.blogspot.com/-DMz_AeXReFQ/WmzGNxk7UOI/AAAAAAAAGDE/GLSmSDkb8LkRpFW4lbKMAaE6v7xM8oHAQCLcBGAs/s1600/5.jpg

https://2.bp.blogspot.com/-8SjZdaleGUI/WmzGN4VKqPI/AAAAAAAAGDA/Pobws2J0AsY19dPkGZetrKlFpbGwSGNGgCLcBGAs/s1600/6.jpg






★ MEDIAINFO ★





General
Complete name : Warm Bodies (2013) 2160p 4k UHD HDR Dual Latino-Inglés.mkv
Format : Matroska
Format version : Version 4 / Version 2
File size : 22.3 GiB
Duration : 1 h 37 min
Overall bit rate mode : Variable
Overall bit rate : 32.7 Mb/s
Movie name : www.club-hd.com
Encoded date : UTC 2018-01-27 00:13:11
Writing application : mkvmerge v13.0.0 ('The Juggler') 64bit
Writing library : libebml v1.3.4 + libmatroska v1.4.5

Video
ID : 1
Format : HEVC
Format/Info : High Efficiency Video Coding
Format profile : Main 10@L5.1@High
Codec ID : V_MPEGH/ISO/HEVC
Duration : 1 h 37 min
Bit rate : 26.8 Mb/s
Width : 3 840 pixels
Height : 1 600 pixels
Display aspect ratio : 2.40:1
Frame rate mode : Constant
Frame rate : 23.976 (24000/1001) FPS
Color space : YUV
Chroma subsampling : 4:2:0 (Type 2)
Bit depth : 10 bits
Bits/(Pixel*Frame) : 0.182
Stream size : 18.3 GiB (82%)
Title : Warm Bodies (2013) 2160p 4k UHD HDR Dual Latino-Inglés
Writing library : x265 2.6+22-ff02513b92c0:[Windows][GCC 6.3.0][64 bit] 10bit
Language : English
Default : Yes
Forced : No
Color range : Limited
Color primaries : BT.2020
Transfer characteristics : PQ
Matrix coefficients : BT.2020 non-constant
Mastering display color primaries : R: x=0.680000 y=0.320000, G: x=0.265000 y=0.690000, B: x=0.150000 y=0.060000, White point: x=0.312700 y=0.329000
Mastering display luminance : min: 0.0050 cd/m2, max: 1000.0000 cd/m2
Maximum Content Light Level : 1000 cd/m2
Maximum Frame-Average Light Level : 1000 cd/m2

Audio #1
ID : 2
Format : AC-3
Format/Info : Audio Coding 3
Codec ID : A_AC3
Duration : 1 h 37 min
Bit rate mode : Constant
Bit rate : 448 kb/s
Channel(s) : 6 channels
Channel positions : Front: L C R, Side: L R, LFE
Sampling rate : 48.0 kHz
Frame rate : 31.250 FPS (1536 SPF)
Bit depth : 16 bits
Compression mode : Lossy
Stream size : 313 MiB (1%)
Title : Latino AC3 5.1 Bluray
Language : Spanish
Service kind : Complete Main
Default : Yes
Forced : No

Audio #2
ID : 3
Format : TrueHD
Format profile : TrueHD+Atmos / TrueHD
Codec ID : A_TRUEHD
Duration : 1 h 37 min
Bit rate mode : Variable
Bit rate : 5 403 kb/s
Maximum bit rate : 10.3 Mb/s
Channel(s) : Object Based / 8 channels
Channel positions : Object Based / Front: L C R, Side: L R, Back: L R, LFE
Sampling rate : / 48.0 kHz
Frame rate : 1 200.000 FPS (40 SPF)
Compression mode : Lossless
Stream size : 3.69 GiB (17%)
Title : Inglés TrueHD/Atmos 7.1 Bluray 4k
Language : English
Default : No
Forced : No

Text
ID : 4
Format : PGS
Muxing mode : zlib
Codec ID : S_HDMV/PGS
Codec ID/Info : Picture based subtitle format used on BDs/HD-DVDs
Duration : 1 h 37 min
Bit rate : 20.0 kb/s
Count of elements : 1748
Stream size : 13.9 MiB (0%)
Title : Subtitulos Español
Language : Spanish
Default : No
Forced : No

Menu
00:00:00.000 : en:00:00:00.000
00:08:02.524 : en:00:08:02.524
00:14:05.219 : en:00:14:05.219
00:19:23.662 : en:00:19:23.662
00:24:31.595 : en:00:24:31.595
00:31:16.416 : en:00:31:16.416
00:38:02.405 : en:00:38:02.405
00:44:21.117 : en:00:44:21.117
00:49:55.367 : en:00:49:55.367
00:55:43.340 : en:00:55:43.340
00:59:49.753 : en:00:59:49.753
01:03:37.522 : en:01:03:37.522
01:11:12.518 : en:01:11:12.518
01:17:32.273 : en:01:17:32.273
01:22:18.058 : en:01:22:18.058
01:27:23.947 : en:01:27:23.947










★ CONTRASEÑA ★





www.club-hd.com






★ DESCARGA ★


Todos los links son Intercambiables!



http://2.bp.blogspot.com/-nXtN7MPZ_A8/VZab6hvUJRI/AAAAAAAAsNY/1VAgQ63UKOQ/s1600/MEGA-BANNER.png

**Hidden Content: Check the thread to see hidden data.**



https://3.bp.blogspot.com/-n3vyYws6udw/WYitgMOaduI/AAAAAAAA1L0/PE1jBg4l_7I2Cp9SjlekwnTQbXZwrQo3wCLcBGAs/s1600/1FICHIER-BANNER.png

**Hidden Content: Check the thread to see hidden data.**



http://3.bp.blogspot.com/-Yh5P3OSnxaQ/UOkNsmy5n6I/AAAAAAAAFG8/J9B4jZodRqM/s1600/UPLOADED_BANNER.png

**Hidden Content: Check the thread to see hidden data.**



https://1.bp.blogspot.com/-PE8m5kK7vYo/WJoNpVnuMnI/AAAAAAAA0go/jTlWOR0KOCEoUUzcNlzAqSRBkzh8nRT4QCLcB/s1600/OPENLOAD.png

**Hidden Content: Check the thread to see hidden data.**

pepititoma
27/01/2018, 15:32
Gracias

JCAvila
27/01/2018, 16:56
gracias!

juniorgarabo
27/01/2018, 20:12
Desc_g_

virus619
27/01/2018, 21:28
Desc_g_

samuelabad
27/01/2018, 23:36
Gracias

novatoxp
28/01/2018, 12:39
Desc_g_

flujo
28/01/2018, 14:21
gracias

ismar360
29/01/2018, 08:39
Desc_g_

cripp
29/01/2018, 10:45
Gracias por compartir

jairfon28
30/01/2018, 23:57
Gracias.

fewac
01/02/2018, 23:21
Gracias!!!

LANINADULCE
02/02/2018, 04:07
Desc_g_

msr.1899
21/02/2018, 13:31
gracias!

joelmax18
09/04/2018, 21:48
gracias