PDA

Ver la versión completa : Concussion (2015) 2160p 4k UHD HDR Dual Latino-Inglés [Subt. Esp] (Drama. Deporte)



Brady
25/01/2018, 05:20
https://2.bp.blogspot.com/-DAPEnGT0R0A/WmmQja7rPmI/AAAAAAAACKs/v11hVAloH-cN57HFfe99t_73Z54Tfy74QCLcBGAs/s1600/concusion.jpg


https://1.bp.blogspot.com/-s6PuW6TawPg/WaxnWg-5pPI/AAAAAAAAALs/OMh7vMt1tkAKRT8kSue_zxgG64KJ0Ss1ACLcBGAs/s1600/ficha%2Btecnica%2Bclub.jpg



Título Original: Concussion
Año: 2015
Duración: 123 min.
País: https://www.filmaffinity.com/imgs/countries/US.jpg United States
Director: Peter Landesman
Guion: Peter Landesman (Artículo: Jeanne Marie Laskas)
Reparto: Will Smith, Gugu Mbatha-Raw, Alec Baldwin, Albert Brooks, David Morse, Eddie Marsan, Stephen Moyer, Luke Wilson, Adewale Akinnuoye-Agbaje, Bitsie Tulloch, Matthew Willig, Paul Reiser, Richard T. Jones, Mike O'Malley, Arliss Howard
Productora: Scott Free Productions / The Shuman Company
Género: Drama | Medicina. Deporte. Fútbol americano. Basado en hechos reales


SINOPSIS
El Dr. Bennet Omalu (Will Smith) es un neuropatólogo forense que descubrió el síndrome postconmoción cerebral, que tanto daño causó a numerosos jugadores de fútbol americano, provocando incluso el suicidio de muchas estrellas de la liga NFL afectadas por el síndrome, como Dave Duerson y Junior Seau.

TRAILER

https://www.youtube.com/watch?v=nFqwTcwDryM

Datos Técnicos
Video:
MPEGH HEVC / 2160p / High Profile 5.1 / 16.5 mbps

Audio:
Español Latino / AC3 5.1/ 640 kbps / 48kHz / Bluray 4k
Inglés / TrueHD/Atmos 7.1 / 4048/7197 kbps / 48kHz / Bluray 4k
Inglés / AC3 5.1/ 640 kbps / 48kHz / Bluray 4k

Subs:
Español Latino / SubRip / Bluray 4k
Español Latino Forzados / SubRip / Bluray 4k
Español Latino / Sup / Bluray 4k
Inglés / Sup / Bluray 4k


General
Unique ID : 183312793118101991113293163893656225473 (0x89E8C27EAF0E0A819596765B73DD86C1)
Format : Matroska
Format version : Version 4 / Version 2
File size : 18.8 GiB
Duration : 2 h 2 min
Overall bit rate mode : Variable
Overall bit rate : 21.9 Mb/s
Encoded date : UTC 2018-01-23 20:09:00
Writing application : mkvmerge v9.9.0 ('Pick Up') 64bit
Writing library : libebml v1.3.4 + libmatroska v1.4.5
Uploader : Brady
Web : www.club-hd.com

Video
ID : 1
Format : HEVC
Format/Info : High Efficiency Video Coding
Format profile : Main 10@L5.1@High
Codec ID : V_MPEGH/ISO/HEVC
Duration : 2 h 2 min
Bit rate : 16.5 Mb/s
Width : 3 840 pixels
Height : 1 608 pixels
Display aspect ratio : 2.40:1
Frame rate mode : Constant
Frame rate : 23.976 (24000/1001) FPS
Color space : YUV
Chroma subsampling : 4:2:0 (Type 2)
Bit depth : 10 bits
Bits/(Pixel*Frame) : 0.111
Stream size : 14.1 GiB (75%)
Writing library : x265 2.6+14-f09f3b4a2115:[Windows][GCC 7.2.0][64 bit] 10bit
Encoding settings : cpuid=1173503 / frame-threads=3 / numa-pools=12 / wpp / no-pmode / no-pme / no-psnr / no-ssim / log-level=2 / input-csp=1 / input-res=3840x1608 / interlace=0 / total-frames=176712 / level-idc=51 / high-tier=1 / uhd-bd=0 / ref=4 / no-allow-non-conformance / repeat-headers / annexb / aud / hrd / info / hash=0 / no-temporal-layers / no-open-gop / min-keyint=24 / keyint=240 / gop-lookahead=0 / bframes=4 / b-adapt=2 / b-pyramid / bframe-bias=0 / rc-lookahead=25 / lookahead-slices=4 / scenecut=40 / no-intra-refresh / ctu=64 / min-cu-size=8 / rect / no-amp / max-tu-size=32 / tu-inter-depth=1 / tu-intra-depth=1 / limit-tu=0 / rdoq-level=2 / dynamic-rd=0.00 / no-ssim-rd / signhide / no-tskip / nr-intra=0 / nr-inter=0 / no-constrained-intra / no-strong-intra-smoothing / max-merge=3 / limit-refs=3 / limit-modes / me=3 / subme=3 / merange=57 / temporal-mvp / weightp / no-weightb / no-analyze-src-pics / deblock=-3:-3 / no-sao / no-sao-non-deblock / rd=4 / no-early-skip / rskip / no-fast-intra / no-tskip-fast / no-cu-lossless / no-b-intra / no-splitrd-skip / rdpenalty=0 / psy-rd=2.00 / psy-rdoq=1.00 / no-rd-refine / analysis-reuse-mode=0 / no-lossless / cbqpoffs=0 / crqpoffs=0 / rc=crf / crf=17.0 / qcomp=0.60 / qpstep=4 / stats-write=0 / stats-read=0 / vbv-maxrate=160000 / vbv-bufsize=160000 / vbv-init=0.9 / crf-max=0.0 / crf-min=0.0 / ipratio=1.40 / pbratio=1.30 / aq-mode=1 / aq-strength=1.00 / cutree / zone-count=0 / no-strict-cbr / qg-size=32 / no-rc-grain / qpmax=69 / qpmin=0 / no-const-vbv / sar=1 / overscan=0 / videoformat=5 / range=0 / colorprim=9 / transfer=16 / colormatrix=9 / chromaloc=1 / chromaloc-top=2 / chromaloc-bottom=2 / display-window=0 / master-display=G(13250,34500)B(7500,3000)R(34000,16000)WP(15635,16450)L(40000000,50) / max-cll=1115,344 / min-luma=0 / max-luma=1023 / log2-max-poc-lsb=8 / vui-timing-info / vui-hrd-info / slices=1 / opt-qp-pps / opt-ref-list-length-pps / no-multi-pass-opt-rps / scenecut-bias=0.05 / no-opt-cu-delta-qp / no-aq-motion / hdr / hdr-opt / no-dhdr10-opt / analysis-reuse-level=5 / scale-factor=0 / refine-intra=0 / refine-inter=0 / refine-mv=0 / no-limit-sao / ctu-info=0 / no-lowpass-dct / refine-mv-type=0 / copy-pic=1
Language : English
Default : Yes
Forced : No
Color range : Limited
Color primaries : BT.2020
Transfer characteristics : PQ
Matrix coefficients : BT.2020 non-constant
Mastering display color primaries : R: x=0.680000 y=0.320000, G: x=0.265000 y=0.690000, B: x=0.150000 y=0.060000, White point: x=0.312700 y=0.329000
Mastering display luminance : min: 0.0050 cd/m2, max: 4000.0000 cd/m2
Maximum Content Light Level : 1115 cd/m2
Maximum Frame-Average Light Level : 344 cd/m2

Audio #1
ID : 2
Format : AC-3
Format/Info : Audio Coding 3
Codec ID : A_AC3
Duration : 2 h 2 min
Bit rate mode : Constant
Bit rate : 640 kb/s
Channel(s) : 6 channels
Channel positions : Front: L C R, Side: L R, LFE
Sampling rate : 48.0 kHz
Frame rate : 31.250 FPS (1536 SPF)
Bit depth : 16 bits
Compression mode : Lossy
Stream size : 562 MiB (3%)
Title : Latino AC3 5.1 640 kbps Bluray 4k
Language : Latin
Service kind : Complete Main
Default : Yes
Forced : No

Audio #2
ID : 3
Format : TrueHD
Format profile : TrueHD+Atmos / TrueHD
Codec ID : A_TRUEHD
Duration : 2 h 2 min
Bit rate mode : Variable
Bit rate : 4 048 kb/s
Maximum bit rate : 7 197 kb/s
Channel(s) : Object Based / 8 channels
Channel positions : Object Based / Front: L C R, Side: L R, Back: L R, LFE
Sampling rate : / 48.0 kHz
Frame rate : 1 200.000 FPS (40 SPF)
Compression mode : Lossless
Stream size : 3.47 GiB (18%)
Title : Ingles TrueHD/Atmos 7.1 7197 kbps Bluray 4k
Language : English
Default : No
Forced : No

Audio #3
ID : 4
Format : AC-3
Format/Info : Audio Coding 3
Codec ID : A_AC3
Duration : 2 h 2 min
Bit rate mode : Constant
Bit rate : 640 kb/s
Channel(s) : 6 channels
Channel positions : Front: L C R, Side: L R, LFE
Sampling rate : 48.0 kHz
Frame rate : 31.250 FPS (1536 SPF)
Bit depth : 16 bits
Compression mode : Lossy
Stream size : 562 MiB (3%)
Title : Ingles AC3 5.1 640 kbps Bluray 4k
Language : English
Service kind : Complete Main
Default : No
Forced : No

Text #1
ID : 5
Format : UTF-8
Codec ID : S_TEXT/UTF8
Codec ID/Info : UTF-8 Plain Text
Duration : 1 h 57 min
Bit rate : 53 b/s
Count of elements : 1319
Stream size : 45.7 KiB (0%)
Title : Latino
Language : Latin
Default : No
Forced : No

Text #2
ID : 6
Format : UTF-8
Codec ID : S_TEXT/UTF8
Codec ID/Info : UTF-8 Plain Text
Duration : 1 h 56 min
Bit rate : 1 b/s
Count of elements : 22
Stream size : 1 005 Bytes (0%)
Title : Forzados
Language : Latin
Default : Yes
Forced : No

Text #3
ID : 7
Format : PGS
Muxing mode : zlib
Codec ID : S_HDMV/PGS
Codec ID/Info : Picture based subtitle format used on BDs/HD-DVDs
Duration : 2 h 1 min
Bit rate : 9 299 b/s
Count of elements : 2642
Stream size : 8.11 MiB (0%)
Title : Latino
Language : Latin
Default : No
Forced : No

Text #4
ID : 8
Format : PGS
Muxing mode : zlib
Codec ID : S_HDMV/PGS
Codec ID/Info : Picture based subtitle format used on BDs/HD-DVDs
Duration : 1 h 57 min
Bit rate : 10.3 kb/s
Count of elements : 2663
Stream size : 8.65 MiB (0%)
Title : Ingles
Language : English
Default : No
Forced : No



http://i.picasion.com/resize86/9844545824b3026d793bc689d2ca154c.jpg

https://2.bp.blogspot.com/-3R-dBixjDdU/WmmVIptzfKI/AAAAAAAACLM/3pdsQ8i4p_s0M4EAUUo__z88F2iOf9RowCLcBGAs/s1600/1.png

https://1.bp.blogspot.com/-wyZ-W0pdPGw/WmmVLeCNkdI/AAAAAAAACLk/H1PZ6vs3XGE8gQBXXCVbi-DmEJfTJFahwCLcBGAs/s1600/2.png

https://3.bp.blogspot.com/-p7Y44f0iOtc/WmmVL2rznxI/AAAAAAAACLo/eqPviyC4AfoLN66Iy3-xHhhXzRxLsH64gCLcBGAs/s1600/3.png

https://4.bp.blogspot.com/-uas2E1e3CNw/WmmVMXFUy7I/AAAAAAAACLs/3BXc-TCPUzgRplQBwKsjgPGPzeWrr1AdACLcBGAs/s1600/4.png

https://1.bp.blogspot.com/-Vvb4TRJd0eM/WmmVMTFvC9I/AAAAAAAACLw/amQhdX6ErXkHUG4o4qe_x987xhoK7R1QgCLcBGAs/s1600/5.png

DESCARGA


Links Intercambiables

https://3.bp.blogspot.com/-n3vyYws6udw/WYitgMOaduI/AAAAAAAA1L0/PE1jBg4l_7I2Cp9SjlekwnTQbXZwrQo3wCLcBGAs/s1600/1FICHIER-BANNER.png
**Hidden Content: Check the thread to see hidden data.**

http://2.bp.blogspot.com/-nXtN7MPZ_A8/VZab6hvUJRI/AAAAAAAAsNY/1VAgQ63UKOQ/s1600/MEGA-BANNER.png
**Hidden Content: Check the thread to see hidden data.**

http://3.bp.blogspot.com/-Yh5P3OSnxaQ/UOkNsmy5n6I/AAAAAAAAFG8/J9B4jZodRqM/s1600/UPLOADED_BANNER.png
**Hidden Content: Check the thread to see hidden data.**

https://1.bp.blogspot.com/-PE8m5kK7vYo/WJoNpVnuMnI/AAAAAAAA0go/jTlWOR0KOCEoUUzcNlzAqSRBkzh8nRT4QCLcB/s1600/OPENLOAD.png
**Hidden Content: Check the thread to see hidden data.**

https://4.bp.blogspot.com/-qqShfCTogHE/WaxnWvr1vHI/AAAAAAAAAL0/aTU3k5gHeNYqWMWsFEdXHF722AwHK0bewCLcBGAs/s1600/contrase%25C3%25B1a%2Bclub%2Bhd.jpg




www.club-hd.com

JCAvila
25/01/2018, 05:43
gracias!

cpola
25/01/2018, 06:16
Gracias

Josiba
25/01/2018, 06:49
Desc_g_

crischapman
25/01/2018, 09:12
Gracias!

cripp
25/01/2018, 10:41
Gracias por compartir

samuelabad
25/01/2018, 11:57
Gracias

tsubasa100
25/01/2018, 14:43
gracias!

novatoxp
25/01/2018, 17:23
Desc_g_

virus619
25/01/2018, 20:56
Desc_g_

SAAEDVI
25/01/2018, 23:59
me gusta

juniorgarabo
26/01/2018, 12:16
Desc_g_

flujo
26/01/2018, 19:11
gracias

miyagi
27/01/2018, 21:14
gracias!

DavePR
28/01/2018, 08:28
Gracias

consuelobarturen
31/01/2018, 14:20
graciassssssssss

fewac
01/02/2018, 22:45
Gracias!!!

LANINADULCE
02/02/2018, 04:13
Desc_g_

joelmax18
05/02/2018, 00:18
gracias

lcfrei
09/02/2018, 23:51
gracias

leuco88
09/03/2018, 18:56
gracias

jordanpaolashael
10/03/2018, 08:51
Magnífico, muchísimas gracias!!!