PDA

Ver la versión completa : Harry Potter and the Prisoner of Azkaban (2004) 2160p 4k UHD HDR Dual Latino-Inglés [Subt. Esp] (Fantástico. Aventuras. Drama)



El Macho
23/01/2018, 18:42
https://4.bp.blogspot.com/-KDgphgBxnCU/WmewHo49OxI/AAAAAAAAEBg/Vb6BgdVvidg55bunmeOkefC0ve3NtjmvACLcBGAs/s1600/172713_front.jpg

http://3.bp.blogspot.com/-LYzfZ-p-y-Q/U9m3clt7OjI/AAAAAAAAens/x1XX390h4XE/s1600/Ficha-Tec.png
Título original:Harry Potter and the Prisoner of Azkaban
Año: 2004
Duración: 137 min.
País: https://www.filmaffinity.com/imgs/countries/GB.jpgReino Unido
Director: Alfonso Cuarón
Guión:Steve Kloves (Novela: J.K. Rowling)
Música: John Williams
Fotografía: Michael Seresin
Reparto: Daniel Radcliffe, Rupert Grint, Emma Watson, David Thewlis, Michael Gambon, Robbie Coltrane, Alan Rickman, Gary Oldman, Tom Felton, Timothy Spall, Emma Thompson, Maggie Smith, Pam Ferris, Mark Williams, Richard Griffiths, Robert Hardy, Matthew Lewis, Lee Ingleby, Dawn French, Julie Christie, Fiona Shaw, Oliver Phelps, James Phelps, Devon Murray
Productora:Coproducción GB-USA; Warner Bros. Pictures / Heyday Films / 1492 Pictures
Género: Fantástico. Aventuras. Drama | Magia. Viajes en el tiempo. Hombres lobo. Young Adult. Secuela

Sinopsis:
Cuando Harry Potter y sus amigos vuelven a Hogwarts para cursar su tercer año de estudios, se ven involucrados en un misterio: de la prisión para magos de Azkaban se ha fugado Sirius Black, un peligroso mago que fue cómplice de Lord Voldemort y que intentará vengarse de Harry Potter. El joven aprendiz de mago contribuyó en gran medida a la condena de Sirius, por lo que hay razones para temer por su vida.

http://1.bp.blogspot.com/-Dr74Zk-O9FU/U95uwc6jgjI/AAAAAAAAet8/QzINjXhaMbw/s1600/zHS6oI9.png

https://www.youtube.com/watch?v=1ZdlAg3j8nI

https://3.bp.blogspot.com/-XnvHsJ2M5SE/WmewLmyAPYI/AAAAAAAAEBw/X_EpYunYh9cWvAuNrdue7GmsHuJRlGdgwCLcBGAs/s1600/vlcsnap-2018-01-23-22h56m55s822.png

https://3.bp.blogspot.com/-oPHC409Pm3w/WmewKree_uI/AAAAAAAAEBk/ihYt8L2Gj3UFIVR39gBQ4eIlsmp9JRzswCLcBGAs/s1600/vlcsnap-2018-01-23-22h57m11s804.png

https://3.bp.blogspot.com/-y7eBbFHZY2U/WmewLjFYPxI/AAAAAAAAEBo/B2yBDwhrcxo8rSDNahcPBSCOHlvOtdw8gCLcBGAs/s1600/vlcsnap-2018-01-23-22h57m20s353.png

https://4.bp.blogspot.com/-94ftyAehgIU/WmewMJKgpvI/AAAAAAAAEBs/CyJ3RKQsVOEzcJuLqMhhweEOAc-RpqsZQCLcBGAs/s1600/vlcsnap-2018-01-23-22h57m29s875.png

https://4.bp.blogspot.com/-G3sQzLWM_wI/WmewN30pSBI/AAAAAAAAEB0/E9stdBQjiB8JHU-0UzxZaBQ97xU1SKr0wCLcBGAs/s1600/vlcsnap-2018-01-23-22h57m59s082.png



http://3.bp.blogspot.com/-02WQyPCh4X0/U9m62GQVBtI/AAAAAAAAeoU/emTsoKsILUs/s1600/MediaInfo.png

Format : Matroska
Format version : Version 4 / Version 2
File size : 18.7 GiB
Duration : 2 h 21 min
Overall bit rate : 18.9 Mb/s
Movie name : www.club-hd.com
Encoded date : UTC 2018-01-23 21:43:09
Writing application : mkvmerge v15.0.0 ('Duel with the Devil') 64-bit
Writing library : libebml v1.3.5 + libmatroska v1.4.5

Video
ID : 1
Format : HEVC
Format/Info : High Efficiency Video Coding
Format profile : Main 10@L5.1@High
Codec ID : V_MPEGH/ISO/HEVC
Duration : 2 h 21 min
Bit rate : 17.7 Mb/s
Width : 3 840 pixels
Height : 1 600 pixels
Display aspect ratio : 2.40:1
Frame rate mode : Constant
Frame rate : 23.976 (24000/1001) FPS
Color space : YUV
Chroma subsampling : 4:2:0 (Type 2)
Bit depth : 10 bits
Bits/(Pixel*Frame) : 0.120
Stream size : 17.6 GiB (94%)
Title : Harry Potter and the Prisoner of Azkaban (2004) 2160p 4k UHD HDR Dual Latino-Inglés [Subt. Esp]
Writing library : x265 2.6+22-ff02513b92c0:[Windows][GCC 6.3.0][64 bit] 10bit
Encoding settings : cpuid=1173503 / frame-threads=4 / numa-pools=16 / wpp / no-pmode / no-pme / no-psnr / no-ssim / log-level=2 / input-csp=1 / input-res=3840x1600 / interlace=0 / total-frames=203862 / level-idc=51 / high-tier=1 / uhd-bd=0 / ref=4 / no-allow-non-conformance / repeat-headers / annexb / aud / hrd / info / hash=0 / no-temporal-layers / no-open-gop / min-keyint=1 / keyint=24 / gop-lookahead=0 / bframes=4 / b-adapt=2 / b-pyramid / bframe-bias=0 / rc-lookahead=25 / lookahead-slices=4 / scenecut=40 / radl=0 / no-intra-refresh / ctu=64 / min-cu-size=8 / rect / no-amp / max-tu-size=32 / tu-inter-depth=1 / tu-intra-depth=1 / limit-tu=0 / rdoq-level=2 / dynamic-rd=0.00 / no-ssim-rd / signhide / no-tskip / nr-intra=0 / nr-inter=0 / no-constrained-intra / no-strong-intra-smoothing / max-merge=3 / limit-refs=3 / limit-modes / me=3 / subme=3 / merange=57 / temporal-mvp / weightp / no-weightb / no-analyze-src-pics / deblock=-3:-3 / no-sao / no-sao-non-deblock / rd=4 / no-early-skip / rskip / no-fast-intra / no-tskip-fast / no-cu-lossless / no-b-intra / no-splitrd-skip / rdpenalty=0 / psy-rd=2.00 / psy-rdoq=1.00 / no-rd-refine / no-lossless / cbqpoffs=0 / crqpoffs=0 / rc=crf / crf=17.0 / qcomp=0.60 / qpstep=4 / stats-write=0 / stats-read=0 / vbv-maxrate=160000 / vbv-bufsize=160000 / vbv-init=0.9 / crf-max=0.0 / crf-min=0.0 / ipratio=1.40 / pbratio=1.30 / aq-mode=1 / aq-strength=1.00 / cutree / zone-count=0 / no-strict-cbr / qg-size=32 / no-rc-grain / qpmax=69 / qpmin=0 / no-const-vbv / sar=1 / overscan=0 / videoformat=5 / range=0 / colorprim=9 / transfer=16 / colormatrix=9 / chromaloc=1 / chromaloc-top=2 / chromaloc-bottom=2 / display-window=0 / master-display=G(13250,34500)B(7500,3000)R(34000,16000)WP(15635,16450)L(40000000,50) / max-cll=1838,277 / min-luma=0 / max-luma=1023 / log2-max-poc-lsb=8 / vui-timing-info / vui-hrd-info / slices=1 / no-opt-qp-pps / no-opt-ref-list-length-pps / no-multi-pass-opt-rps / scenecut-bias=0.05 / no-opt-cu-delta-qp / no-aq-motion / hdr / hdr-opt / no-dhdr10-opt / analysis-save=(null) / analysis-load=(null) / analysis-reuse-level=5 / scale-factor=0 / refine-intra=0 / refine-inter=0 / refine-mv=0 / no-limit-sao / ctu-info=0 / no-lowpass-dct / refine-mv-type=0 / copy-pic=1
Language : English
Default : Yes
Forced : No
Color range : Limited
Color primaries : BT.2020
Transfer characteristics : PQ
Matrix coefficients : BT.2020 non-constant
Mastering display color primaries : R: x=0.680000 y=0.320000, G: x=0.265000 y=0.690000, B: x=0.150000 y=0.060000, White point: x=0.312700 y=0.329000
Mastering display luminance : min: 0.0050 cd/m2, max: 4000.0000 cd/m2
Maximum Content Light Level : 1838 cd/m2
Maximum Frame-Average Light Level : 277 cd/m2

Audio #1
ID : 2
Format : AC-3
Format/Info : Audio Coding 3
Format settings, Endianness : Big
Codec ID : A_AC3
Duration : 2 h 21 min
Bit rate mode : Constant
Bit rate : 448 kb/s
Channel(s) : 6 channels
Channel positions : Front: L C R, Side: L R, LFE
Sampling rate : 48.0 kHz
Frame rate : 31.250 FPS (1536 SPF)
Bit depth : 16 bits
Compression mode : Lossy
Stream size : 454 MiB (2%)
Title : Latino
Language : Spanish
Service kind : Complete Main
Default : Yes
Forced : No

Audio #2
ID : 3
Format : AC-3
Format/Info : Audio Coding 3
Format settings, Endianness : Big
Codec ID : A_AC3
Duration : 2 h 21 min
Bit rate mode : Constant
Bit rate : 640 kb/s
Channel(s) : 6 channels
Channel positions : Front: L C R, Side: L R, LFE
Sampling rate : 48.0 kHz
Frame rate : 31.250 FPS (1536 SPF)
Bit depth : 16 bits
Compression mode : Lossy
Stream size : 649 MiB (3%)
Title : English
Language : English
Service kind : Complete Main
Default : No
Forced : No

Text #1
ID : 4
Format : UTF-8
Codec ID : S_TEXT/UTF8
Codec ID/Info : UTF-8 Plain Text
Duration : 2 h 20 min
Bit rate : 0 b/s
Count of elements : 3
Stream size : 80.0 Bytes (0%)
Title : Latino Forzados
Language : Spanish
Default : Yes
Forced : No

Text #2
ID : 5
Format : UTF-8
Codec ID : S_TEXT/UTF8
Codec ID/Info : UTF-8 Plain Text
Duration : 2 h 20 min
Bit rate : 48 b/s
Count of elements : 1387
Stream size : 49.5 KiB (0%)
Title : Latino
Language : Spanish
Default : No
Forced : No

Text #3
ID : 6
Format : UTF-8
Codec ID : S_TEXT/UTF8
Codec ID/Info : UTF-8 Plain Text
Duration : 2 h 21 min
Bit rate : 54 b/s
Count of elements : 1625
Stream size : 56.8 KiB (0%)
Title : English
Language : English
Default : No
Forced : No

Text #4
ID : 7
Format : PGS
Muxing mode : zlib
Codec ID : S_HDMV/PGS
Codec ID/Info : Picture based subtitle format used on BDs/HD-DVDs
Duration : 2 h 20 min
Bit rate : 50 b/s
Count of elements : 6
Stream size : 51.6 KiB (0%)
Title : Latino Forzados
Language : Spanish
Default : No
Forced : No

Text #5
ID : 8
Format : PGS
Muxing mode : zlib
Codec ID : S_HDMV/PGS
Codec ID/Info : Picture based subtitle format used on BDs/HD-DVDs
Duration : 2 h 20 min
Bit rate : 25.1 kb/s
Count of elements : 2774
Stream size : 25.2 MiB (0%)
Title : Latino
Language : Spanish
Default : No
Forced : No

Text #6
ID : 9
Format : PGS
Muxing mode : zlib
Codec ID : S_HDMV/PGS
Codec ID/Info : Picture based subtitle format used on BDs/HD-DVDs
Duration : 2 h 21 min
Bit rate : 30.2 kb/s
Count of elements : 3250
Stream size : 30.5 MiB (0%)
Language : English
Default : No
Forced : No

Menu
00:00:00.000 : :Chapter 01
00:05:00.000 : :Chapter 02
00:10:00.000 : :Chapter 03
00:15:00.000 : :Chapter 04
00:20:00.000 : :Chapter 05
00:25:00.000 : :Chapter 06
00:30:00.000 : :Chapter 07
00:35:00.000 : :Chapter 08
00:40:00.000 : :Chapter 09
00:45:00.000 : :Chapter 10
00:50:00.000 : :Chapter 11
00:55:00.000 : :Chapter 12
01:00:00.000 : :Chapter 13
01:05:00.000 : :Chapter 14
01:10:00.000 : :Chapter 15
01:15:00.000 : :Chapter 16
01:20:00.000 : :Chapter 17
01:25:00.000 : :Chapter 18
01:30:00.000 : :Chapter 19
01:35:00.000 : :Chapter 20
01:40:00.000 : :Chapter 21
01:45:00.000 : :Chapter 22
01:50:00.000 : :Chapter 23
01:55:00.000 : :Chapter 24
02:00:00.000 : :Chapter 25
02:05:00.000 : :Chapter 26
02:10:00.000 : :Chapter 27
02:15:00.000 : :Chapter 28
02:20:00.000 : :Chapter 29




Contraseña: www.club-hd.com (http://www.club-hd.com)

https://3.bp.blogspot.com/-BX_34i-_ztM/WebiHua1FoI/AAAAAAAAA_o/FNf_VHZ7S3QqgZhSIgcnbMmDUIwus5oLgCLcBGAs/s1600/b77fe464cfc445da9003a5383a3e1acf.jpg
**Hidden Content: Check the thread to see hidden data.**

http://2.bp.blogspot.com/-nXtN7MPZ_A8/VZab6hvUJRI/AAAAAAAAsNY/1VAgQ63UKOQ/s1600/MEGA-BANNER.png
**Hidden Content: Check the thread to see hidden data.**


https://1.bp.blogspot.com/-i_8P16n2kUs/WuqNL55F-LI/AAAAAAAA1-A/vx1VyRFomTkhraEuPbhcpsS0Ig5xxM7gwCLcBGAs/s1600/1FICHIER-VIP.png
**Hidden Content: Check the thread to see hidden data.**


http://3.bp.blogspot.com/-Yh5P3OSnxaQ/UOkNsmy5n6I/AAAAAAAAFG8/J9B4jZodRqM/s1600/UPLOADED_BANNER.png
**Hidden Content: Check the thread to see hidden data.**

https://1.bp.blogspot.com/-PE8m5kK7vYo/WJoNpVnuMnI/AAAAAAAA0go/jTlWOR0KOCEoUUzcNlzAqSRBkzh8nRT4QCLcB/s1600/OPENLOAD.png
**Hidden Content: Check the thread to see hidden data.**

cpola
23/01/2018, 18:54
Gracias

novatoxp
23/01/2018, 19:50
Desc_g_

Josiba
23/01/2018, 20:31
Desc_g_

tsubasa100
23/01/2018, 20:45
Gracias

samuelabad
23/01/2018, 21:18
gracias

SAAEDVI
23/01/2018, 21:53
me gusta

vladyspy
23/01/2018, 23:28
Gracias

flujo
23/01/2018, 23:45
gracias

jramirez05
23/01/2018, 23:58
gracias

joelmax18
24/01/2018, 00:11
gracias

juniorgarabo
24/01/2018, 02:08
Desc_g_

JCAvila
24/01/2018, 08:59
gracias!

jererado
24/01/2018, 10:05
Excelente Gracias

cripp
24/01/2018, 10:51
Gracias por compartir

LANINADULCE
24/01/2018, 13:39
Desc_g_

herbard
24/01/2018, 14:20
Desc_g_

leontrosky
24/01/2018, 15:08
gracias

PATRICIOG
24/01/2018, 18:55
Desc_g_

sosalexfame
25/01/2018, 04:43
gracias

goddrink
25/01/2018, 06:51
gracias

jpabloy
25/01/2018, 09:52
que buena saga

orostico
25/01/2018, 17:57
:) saludos

eabadia
27/01/2018, 20:37
bajandso

RESIDENT_EVIL
27/01/2018, 21:35
Desc_g_Desc_g_

DavePR
28/01/2018, 08:35
Gracias

pepititoma
28/01/2018, 18:23
gracias.

ismar360
29/01/2018, 08:46
Desc_g_

fewac
30/01/2018, 22:14
Gracias!!!

j-galicia-h
02/02/2018, 13:36
gracias amigo bajando buena pelicula

Limberth1
06/02/2018, 12:55
Gracias

alesgdl
10/02/2018, 22:08
MUCHAS GRACIAS

jafont32
11/02/2018, 01:35
Gracias

urbania65
11/02/2018, 14:24
gracias

gabrielx5
19/02/2018, 20:18
gracias

msr.1899
22/02/2018, 10:08
gracias

Jorge navas
24/02/2018, 01:35
Muchas gracias.

F.J
28/02/2018, 10:21
Gracias!!!!!!!!

chongolo
10/03/2018, 23:01
Gracias

justcauseaguyreadscomics
20/04/2018, 17:43
muchas gracias!

xikomark
02/06/2018, 13:31
gracias

pippin51
03/06/2018, 05:49
muchas gracias

ecuavideos
22/06/2018, 11:38
gracias

Tony Stark
16/07/2018, 00:15
Desc_g_

muruagam
03/08/2018, 08:43
Desc_g_

josefo08
03/08/2018, 11:49
:pulgar2:

satplus
03/08/2018, 20:50
gracias

xl5
04/08/2018, 12:00
:pulgar1::p3sc:

diphunk
04/08/2018, 19:24
gracias

Valentinlog
06/08/2018, 17:37
Desc_g_

coyote81
10/08/2018, 22:31
muchassss graciassss

vince
11/08/2018, 21:27
descargando

Prem1er
16/08/2018, 05:14
gracias!

vhrod
25/08/2018, 21:52
Desc_g_

angello82
29/08/2018, 13:17
Gracias

x3ro
01/09/2018, 19:38
muchas gracias

Max
15/09/2018, 11:02
Links de Mega y 1fichier agregados. :dplgar:

leandroaraya
20/09/2018, 01:22
buenaaa muchas gracias !! :D

francisdt
29/09/2018, 19:25
Desc_g_

panamanian
07/10/2018, 11:51
muchorisisismas gracias

mdieter
08/10/2018, 21:15
Desc_g_