PDA

Ver la versión completa : The Mummy (2017) 2160p 4k UHD HDR Dual Latino-Inglés [Subt. Esp] (Acción. Aventuras)



Brady
22/01/2018, 02:29
https://3.bp.blogspot.com/-wm497XBCNlE/WmTmehCc9II/AAAAAAAACGU/Qwd5zSeXgAoRMnGGernYqtsuWUQjPvsWwCLcBGAs/s1600/myy.jpg


https://1.bp.blogspot.com/-s6PuW6TawPg/WaxnWg-5pPI/AAAAAAAAALs/OMh7vMt1tkAKRT8kSue_zxgG64KJ0Ss1ACLcBGAs/s1600/ficha%2Btecnica%2Bclub.jpg



Título Original: The Mummy
Año: 2017
Duración: 105 min.
País: https://www.filmaffinity.com/imgs/countries/US.jpg United States
Director: Alex Kurtzman
Guion: David Koepp, Christopher McQuarrie, Dylan Kussman (Historia: Jon Spaihts, Alex Kurtzman, Jenny Lumet)
Reparto: Tom Cruise, Russell Crowe, Annabelle Wallis, Sofia Boutella, Jake Johnson, Courtney B. Vance, Chico Kenzari, Javier Botet, Shina Shihoko Nagai, Solomon Taiwo Justified, Emily Ng, Jason Matthewson, Dylan Smith, Rez Kempton, Neil Maskell
Productora: Universal Pictures / Dark Universe / Perfect World Pictures
Género: Acción. Aventuras. Fantástico | Sobrenatural. Antiguo Egipto


SINOPSIS
A pesar de estar enterrada en una tumba en lo más profundo del desierto, una antigua princesa (Sofia Boutella) cuyo destino le fue arrebatado injustamente, se despierta en la época actual, trayendo consigo una maldición que ha crecido hasta límites insospechados con el paso de miles de años.

TRAILER

https://www.youtube.com/watch?v=bwTFXVdbeEw

Datos Técnicos
Video:
MPEGH HEVC / 2160p / High Profile 5.1 / 33.0 mbps

Audio:
Español Latino / DTS 5.1/ 768 kbps / 48kHz / Bluray 4k
Inglés / TrueHD/Atmos 7.1 / 4927/8133 kbps / 48kHz / Bluray 4k
Inglés / AC3 5.1/ 640 kbps / 48kHz / Bluray 4k

Subs:
Español Latino / SubRip / Bluray 4k
Español Latino Forzados / SubRip / Bluray 4k
Español Latino / Sup / Bluray 4k
Español Latino Forzados / Sup / Bluray 4k
Inglés / Sup / Bluray 4k


General
Unique ID : 182695874675555952032625146073905600889 (0x8971F2113A2D8C728EBFEC5BD65F9979)
Format : Matroska
Format version : Version 4 / Version 2
File size : 30.3 GiB
Duration : 1 h 50 min
Overall bit rate mode : Variable
Overall bit rate : 39.4 Mb/s
Encoded date : UTC 2018-01-21 10:29:31
Writing application : mkvmerge v9.9.0 ('Pick Up') 64bit
Writing library : libebml v1.3.4 + libmatroska v1.4.5
Uploader : Brady
Web : www.club-hd.com

Video
ID : 1
Format : HEVC
Format/Info : High Efficiency Video Coding
Format profile : Main 10@L5.1@High
Codec ID : V_MPEGH/ISO/HEVC
Duration : 1 h 50 min
Bit rate : 33.0 Mb/s
Width : 3 840 pixels
Height : 1 600 pixels
Display aspect ratio : 2.40:1
Frame rate mode : Constant
Frame rate : 23.976 (24000/1001) FPS
Color space : YUV
Chroma subsampling : 4:2:0 (Type 2)
Bit depth : 10 bits
Bits/(Pixel*Frame) : 0.224
Stream size : 25.4 GiB (84%)
Writing library : x265 2.5+27-0e168bdeb48b:[Windows][GCC 6.2.1][64 bit] 10bit
Encoding settings : cpuid=1173503 / frame-threads=4 / numa-pools=20 / wpp / no-pmode / no-pme / no-psnr / no-ssim / log-level=2 / input-csp=1 / input-res=3840x1600 / interlace=0 / total-frames=158396 / level-idc=51 / high-tier=1 / uhd-bd=0 / ref=4 / no-allow-non-conformance / repeat-headers / annexb / aud / hrd / info / hash=0 / no-temporal-layers / no-open-gop / min-keyint=1 / keyint=24 / bframes=4 / b-adapt=2 / b-pyramid / bframe-bias=0 / rc-lookahead=25 / lookahead-slices=4 / scenecut=40 / no-intra-refresh / ctu=64 / min-cu-size=8 / rect / no-amp / max-tu-size=32 / tu-inter-depth=1 / tu-intra-depth=1 / limit-tu=0 / rdoq-level=2 / dynamic-rd=0.00 / no-ssim-rd / signhide / no-tskip / nr-intra=0 / nr-inter=0 / no-constrained-intra / no-strong-intra-smoothing / max-merge=3 / limit-refs=3 / limit-modes / me=3 / subme=3 / merange=57 / temporal-mvp / weightp / no-weightb / no-analyze-src-pics / deblock=-3:-3 / no-sao / no-sao-non-deblock / rd=4 / no-early-skip / rskip / no-fast-intra / no-tskip-fast / no-cu-lossless / no-b-intra / no-splitrd-skip / rdpenalty=0 / psy-rd=2.00 / psy-rdoq=1.00 / no-rd-refine / analysis-reuse-mode=0 / no-lossless / cbqpoffs=0 / crqpoffs=0 / rc=crf / crf=17.0 / qcomp=0.60 / qpstep=4 / stats-write=0 / stats-read=0 / vbv-maxrate=160000 / vbv-bufsize=160000 / vbv-init=0.9 / crf-max=0.0 / crf-min=0.0 / ipratio=1.40 / pbratio=1.30 / aq-mode=1 / aq-strength=1.00 / cutree / zone-count=0 / no-strict-cbr / qg-size=32 / no-rc-grain / qpmax=69 / qpmin=0 / no-const-vbv / sar=1 / overscan=0 / videoformat=5 / range=0 / colorprim=9 / transfer=16 / colormatrix=9 / chromaloc=1 / chromaloc-top=2 / chromaloc-bottom=2 / display-window=0 / master-display=G(13250,34500)B(7500,3000)R(34000,16000)WP(15635,16450)L(10000000,50) / max-cll=1000,343 / min-luma=0 / max-luma=1023 / log2-max-poc-lsb=8 / vui-timing-info / vui-hrd-info / slices=1 / opt-qp-pps / opt-ref-list-length-pps / no-multi-pass-opt-rps / scenecut-bias=0.05 / no-opt-cu-delta-qp / no-aq-motion / hdr / hdr-opt / no-dhdr10-opt / analysis-reuse-level=5 / scale-factor=0 / refine-intra=0 / refine-inter=0 / refine-mv=0 / no-limit-sao / ctu-info=0
Language : English
Default : Yes
Forced : No
Color range : Limited
Color primaries : BT.2020
Transfer characteristics : PQ
Matrix coefficients : BT.2020 non-constant
Mastering display color primaries : R: x=0.680000 y=0.320000, G: x=0.265000 y=0.690000, B: x=0.150000 y=0.060000, White point: x=0.312700 y=0.329000
Mastering display luminance : min: 0.0050 cd/m2, max: 1000.0000 cd/m2
Maximum Content Light Level : 1000 cd/m2
Maximum Frame-Average Light Level : 343 cd/m2

Audio #1
ID : 2
Format : DTS
Format/Info : Digital Theater Systems
Codec ID : A_DTS
Duration : 1 h 50 min
Bit rate mode : Constant
Bit rate : 768 kb/s
Channel(s) : 6 channels
Channel positions : Front: L C R, Side: L R, LFE
Sampling rate : 48.0 kHz
Frame rate : 93.750 FPS (512 SPF)
Bit depth : 24 bits
Compression mode : Lossy
Stream size : 605 MiB (2%)
Title : Latino DTS 5.1 768 kbps Bluray 4k
Language : Latin
Default : Yes
Forced : No

Audio #2
ID : 3
Format : TrueHD
Format profile : TrueHD+Atmos / TrueHD
Codec ID : A_TRUEHD
Duration : 1 h 50 min
Bit rate mode : Variable
Bit rate : 4 927 kb/s
Maximum bit rate : 8 133 kb/s
Channel(s) : Object Based / 8 channels
Channel positions : Object Based / Front: L C R, Side: L R, Back: L R, LFE
Sampling rate : / 48.0 kHz
Frame rate : 1 200.000 FPS (40 SPF)
Compression mode : Lossless
Stream size : 3.79 GiB (12%)
Title : Ingles TrueHD/Atmos 7.1 4927/8133 kbps Bluray 4k
Language : English
Default : No
Forced : No

Audio #3
ID : 4
Format : AC-3
Format/Info : Audio Coding 3
Codec ID : A_AC3
Duration : 1 h 50 min
Bit rate mode : Constant
Bit rate : 640 kb/s
Channel(s) : 6 channels
Channel positions : Front: L C R, Side: L R, LFE
Sampling rate : 48.0 kHz
Frame rate : 31.250 FPS (1536 SPF)
Bit depth : 16 bits
Compression mode : Lossy
Stream size : 504 MiB (2%)
Title : Ingles AC3 5.1 640 kbps Bluray 4k
Language : English
Service kind : Complete Main
Default : No
Forced : No

Text #1
ID : 5
Format : UTF-8
Codec ID : S_TEXT/UTF8
Codec ID/Info : UTF-8 Plain Text
Duration : 1 h 40 min
Bit rate : 40 b/s
Count of elements : 1088
Stream size : 29.8 KiB (0%)
Title : Latino
Language : Latin
Default : No
Forced : No

Text #2
ID : 6
Format : UTF-8
Codec ID : S_TEXT/UTF8
Codec ID/Info : UTF-8 Plain Text
Duration : 1 h 40 min
Bit rate : 1 b/s
Count of elements : 39
Stream size : 917 Bytes (0%)
Title : Forzados
Language : Latin
Default : Yes
Forced : No

Text #3
ID : 7
Format : PGS
Muxing mode : zlib
Codec ID : S_HDMV/PGS
Codec ID/Info : Picture based subtitle format used on BDs/HD-DVDs
Duration : 1 h 49 min
Bit rate : 7 411 b/s
Count of elements : 2183
Stream size : 5.78 MiB (0%)
Title : Latino
Language : Latin
Default : No
Forced : No

Text #4
ID : 8
Format : PGS
Muxing mode : zlib
Codec ID : S_HDMV/PGS
Codec ID/Info : Picture based subtitle format used on BDs/HD-DVDs
Duration : 1 h 49 min
Bit rate : 264 b/s
Count of elements : 80
Stream size : 212 KiB (0%)
Title : Forzados
Language : Latin
Default : No
Forced : No

Text #5
ID : 9
Format : PGS
Muxing mode : zlib
Codec ID : S_HDMV/PGS
Codec ID/Info : Picture based subtitle format used on BDs/HD-DVDs
Duration : 1 h 37 min
Bit rate : 11.4 kb/s
Count of elements : 2716
Stream size : 8.01 MiB (0%)
Title : Ingles
Language : English
Default : No
Forced : No



http://i.picasion.com/resize86/9844545824b3026d793bc689d2ca154c.jpg

https://3.bp.blogspot.com/-GNewohCMeXg/WmToK_XjEjI/AAAAAAAACGg/rBQydhdwgrYl6l_OzxLMjKJjV8bQmu-PACLcBGAs/s1600/1.png

https://4.bp.blogspot.com/-HFhsUYFqSjQ/WmToK9RZtpI/AAAAAAAACGk/t176C81bidM3CrQn3qL52aCcrXe5ri2PwCLcBGAs/s1600/2.png

https://3.bp.blogspot.com/-s5vGijaUtXE/WmToK0cc_dI/AAAAAAAACGo/lW5fHcGBI-8sviTjJIIE2K72eDm-MPeyACLcBGAs/s1600/3.png

https://2.bp.blogspot.com/-HL8zASqUMe8/WmToLdn0tNI/AAAAAAAACGs/3txdl2Y0kbUDqFUPQLHg1MDrVLODiuRswCLcBGAs/s1600/4.png

https://4.bp.blogspot.com/-yWnfmiRg6mw/WmToLoBEOwI/AAAAAAAACGw/LuKgJN9-DJAfnafhraK-3UOFLSd0wV5ZACLcBGAs/s1600/5.png

DESCARGA


Links Intercambiables

https://3.bp.blogspot.com/-n3vyYws6udw/WYitgMOaduI/AAAAAAAA1L0/PE1jBg4l_7I2Cp9SjlekwnTQbXZwrQo3wCLcBGAs/s1600/1FICHIER-BANNER.png
**Hidden Content: Check the thread to see hidden data.**

http://2.bp.blogspot.com/-nXtN7MPZ_A8/VZab6hvUJRI/AAAAAAAAsNY/1VAgQ63UKOQ/s1600/MEGA-BANNER.png
**Hidden Content: Check the thread to see hidden data.**

http://3.bp.blogspot.com/-Yh5P3OSnxaQ/UOkNsmy5n6I/AAAAAAAAFG8/J9B4jZodRqM/s1600/UPLOADED_BANNER.png
**Hidden Content: Check the thread to see hidden data.**

https://1.bp.blogspot.com/-PE8m5kK7vYo/WJoNpVnuMnI/AAAAAAAA0go/jTlWOR0KOCEoUUzcNlzAqSRBkzh8nRT4QCLcB/s1600/OPENLOAD.png
**Hidden Content: Check the thread to see hidden data.**

https://4.bp.blogspot.com/-qqShfCTogHE/WaxnWvr1vHI/AAAAAAAAAL0/aTU3k5gHeNYqWMWsFEdXHF722AwHK0bewCLcBGAs/s1600/contrase%25C3%25B1a%2Bclub%2Bhd.jpg




www.club-hd.com

Josiba
22/01/2018, 06:19
Desc_g_

cpola
22/01/2018, 06:37
gracias

PATRICIOG
22/01/2018, 07:43
Desc_g_

JCAvila
22/01/2018, 08:38
gracias!

troyano2010
22/01/2018, 09:45
Desc_g_

cripp
22/01/2018, 10:18
Gracias por compartir

coyote81
22/01/2018, 11:00
muchass graciasss

vladyspy
22/01/2018, 11:30
Gracias

novatoxp
22/01/2018, 15:36
Desc_g_

SAAEDVI
22/01/2018, 16:28
ME GUSTA

flujo
22/01/2018, 19:36
gracias

adelgado
22/01/2018, 20:09
Gracias

xikoh99
22/01/2018, 21:38
Desc_g_

cobra1430
22/01/2018, 23:10
muchas gracias

gibrannr1
23/01/2018, 01:19
Desc_g_

LANINADULCE
23/01/2018, 05:23
Desc_g_

davisariel
23/01/2018, 11:58
Desc_g_:dplgar:

juniorgarabo
23/01/2018, 12:34
Desc_g_

herbard
23/01/2018, 17:32
Desc_g_

ibu73
23/01/2018, 19:12
graciass

myberc
23/01/2018, 20:17
Gracias

tsubasa100
23/01/2018, 20:50
gracias

samuelabad
23/01/2018, 21:19
Gracias

leuco88
23/01/2018, 23:14
gracias

jramirez05
23/01/2018, 23:59
gracias

eabadia
24/01/2018, 10:59
bajando

LANINADULCE
24/01/2018, 13:38
Desc_g_

jairfon28
24/01/2018, 18:16
Gracias.

hedipecora
24/01/2018, 19:33
muchas gracias

dvdhunter
25/01/2018, 03:11
gracias por compartir

pablozoladz
26/01/2018, 21:37
Desc_g_

Frank
27/01/2018, 02:01
gracias

muruagam
27/01/2018, 08:52
Desc_g_

vhumberto24
28/01/2018, 15:31
Muchas gracias

fewac
30/01/2018, 21:49
Gracias!!!

vhrod
03/02/2018, 02:17
Desc_g_

Brego
04/02/2018, 20:51
gracias

shirley veloso
07/02/2018, 14:34
Desc_g_

angello82
09/02/2018, 15:40
Gracias

joaquin112233
16/02/2018, 20:09
gracias

gabrielx5
20/02/2018, 21:00
gracias

Edu_Alvarado
14/03/2018, 14:50
GRACIAS

totofloyd
19/03/2018, 10:57
gracias por el aporte

LAPICADERA
20/03/2018, 09:53
gracias

joelmax18
09/04/2018, 21:30
gracias

frankarter
13/05/2018, 12:39
Desc_g_

fernando4555
18/05/2018, 17:27
Desc_g_

ecuavideos
22/06/2018, 11:51
gracias

roberthls
03/08/2018, 05:09
Desc_g_

j-galicia-h
09/08/2018, 04:28
gracias amigo bajando buena pelicula

Prem1er
16/08/2018, 05:15
gracias por el aporte!!