PDA

Ver la versión completa : Storks (2016) 2160p 4k UHD HDR Dual Latino-Inglés [Subt. Esp] (Animación. Comedia)



Brady
20/01/2018, 00:41
https://2.bp.blogspot.com/-II29CL4DV4E/WmK7UM-3gxI/AAAAAAAACCA/WmvPLN8lJGIlNSUQ-4nzgjlxRoK7CnEfQCLcBGAs/s1600/STORKSSIS.jpg


https://1.bp.blogspot.com/-s6PuW6TawPg/WaxnWg-5pPI/AAAAAAAAALs/OMh7vMt1tkAKRT8kSue_zxgG64KJ0Ss1ACLcBGAs/s1600/ficha%2Btecnica%2Bclub.jpg



Título Original: Storks
Año: 2016
Duración: 87 min.
País: https://www.filmaffinity.com/imgs/countries/US.jpg United States
Director: Nicholas Stoller, Doug Sweetland
Guion: Nicholas Stoller
Reparto: Animation
Productora: Warner Animation Group / Warner Bros. Animation
Género: Animación. Comedia. Infantil | Pájaros. Familia. 3-D


SINOPSIS
En Montaña Cigüeña, viven las cigüeñas que hace tiempo enviaban
bebés a los padres de todo el mundo. Ahora distribuyen los paquetes de una compañía mundial de Internet. Junior, la mejor cigüeña repartidora de la compañía, está a punto de conseguir un ascenso, pero accidentalemete activa la Máquina de Producción de Bebés y el resultado es una adorable niña ilegal. Para evitar que su jefe se entere, Junior y su amiga Tulip, el único ser humano de Montaña Cigüeña, se apresuran a entregar el bebé en un viaje salvaje que podría afectar a la integridad de más de una familia y restablecer la verdadera misión de las cigüeñas en el mundo. Debut en el largometraje de Doug Sweetland, responsable del corto de Pixar "Presto" (2008).

TRAILER

https://www.youtube.com/watch?v=fi9vqaUOF7A

Datos Técnicos
Video:
MPEGH HEVC / 2160p / High Profile 5.1 / 18.5 mbps

Audio:
Español Latino Mexicano / AC3 5.1/ 448 kbps / 48kHz / Bluray 4k
Español Latino Latinoamerica / AC3 5.1/ 448 kbps / 48kHz / Bluray 4k
Inglés / DTS-HD MA/Core 5.1 / 2896/1509 kbps / 48kHz / Bluray 4k


Subs:
Español Latino / SubRip / Bluray
Español Latino Forzados / SubRip / Bluray
Español Latino / Sup / Bluray 4k
Español Latino Forzados / Sup / Bluray 4k
Inglés / Sup / Bluray 4k


General
Unique ID : 233020496265737061168127930773452458039 (0xAF4E1D79E866E1508CF95DC4E2398837)
Format : Matroska
Format version : Version 4 / Version 2
File size : 13.6 GiB
Duration : 1 h 26 min
Overall bit rate : 22.3 Mb/s
Encoded date : UTC 2018-01-19 22:01:22
Writing application : mkvmerge v9.9.0 ('Pick Up') 64bit
Writing library : libebml v1.3.4 + libmatroska v1.4.5
Uploader : Brady
Web : www.club-hd.com

Video
ID : 1
Format : HEVC
Format/Info : High Efficiency Video Coding
Format profile : Main 10@L5.1@High
Codec ID : V_MPEGH/ISO/HEVC
Duration : 1 h 26 min
Bit rate : 18.5 Mb/s
Width : 3 840 pixels
Height : 1 596 pixels
Display aspect ratio : 2.40:1
Frame rate mode : Constant
Frame rate : 23.976 (24000/1001) FPS
Color space : YUV
Chroma subsampling : 4:2:0 (Type 2)
Bit depth : 10 bits
Bits/(Pixel*Frame) : 0.126
Stream size : 11.2 GiB (83%)
Writing library : x265 2.6+4-f7498acb3874:[Windows][GCC 7.2.0][64 bit] 10bit
Encoding settings : cpuid=1049087 / frame-threads=4 / numa-pools=12,12 / wpp / no-pmode / no-pme / no-psnr / no-ssim / log-level=2 / input-csp=1 / input-res=3840x1596 / interlace=0 / total-frames=125105 / level-idc=51 / high-tier=1 / uhd-bd=0 / ref=4 / no-allow-non-conformance / repeat-headers / annexb / aud / hrd / info / hash=0 / no-temporal-layers / no-open-gop / min-keyint=24 / keyint=240 / bframes=4 / b-adapt=2 / b-pyramid / bframe-bias=0 / rc-lookahead=25 / lookahead-slices=4 / scenecut=40 / no-intra-refresh / ctu=64 / min-cu-size=8 / rect / no-amp / max-tu-size=32 / tu-inter-depth=1 / tu-intra-depth=1 / limit-tu=0 / rdoq-level=2 / dynamic-rd=0.00 / no-ssim-rd / signhide / no-tskip / nr-intra=0 / nr-inter=0 / no-constrained-intra / no-strong-intra-smoothing / max-merge=3 / limit-refs=3 / limit-modes / me=3 / subme=3 / merange=57 / temporal-mvp / weightp / no-weightb / no-analyze-src-pics / deblock=-3:-3 / no-sao / no-sao-non-deblock / rd=4 / no-early-skip / rskip / no-fast-intra / no-tskip-fast / no-cu-lossless / no-b-intra / no-splitrd-skip / rdpenalty=0 / psy-rd=2.00 / psy-rdoq=1.00 / no-rd-refine / analysis-reuse-mode=0 / no-lossless / cbqpoffs=0 / crqpoffs=0 / rc=crf / crf=17.0 / qcomp=0.60 / qpstep=4 / stats-write=0 / stats-read=0 / vbv-maxrate=160000 / vbv-bufsize=160000 / vbv-init=0.9 / crf-max=0.0 / crf-min=0.0 / ipratio=1.40 / pbratio=1.30 / aq-mode=1 / aq-strength=1.00 / cutree / zone-count=0 / no-strict-cbr / qg-size=32 / no-rc-grain / qpmax=69 / qpmin=0 / no-const-vbv / sar=1 / overscan=0 / videoformat=5 / range=0 / colorprim=9 / transfer=16 / colormatrix=9 / chromaloc=1 / chromaloc-top=2 / chromaloc-bottom=2 / display-window=0 / master-display=G(13250,34500)B(7500,3000)R(34000,16000)WP(15635,16450)L(40000000,50) / max-cll=712,482 / min-luma=0 / max-luma=1023 / log2-max-poc-lsb=8 / vui-timing-info / vui-hrd-info / slices=1 / opt-qp-pps / opt-ref-list-length-pps / no-multi-pass-opt-rps / scenecut-bias=0.05 / no-opt-cu-delta-qp / no-aq-motion / hdr / hdr-opt / no-dhdr10-opt / analysis-reuse-level=5 / scale-factor=0 / refine-intra=0 / refine-inter=0 / refine-mv=0 / no-limit-sao / ctu-info=0 / no-lowpass-dct / refine-mv-type=0 / copy-pic=1
Language : English
Default : Yes
Forced : No
Color range : Limited
Color primaries : BT.2020
Transfer characteristics : PQ
Matrix coefficients : BT.2020 non-constant
Mastering display color primaries : R: x=0.680000 y=0.320000, G: x=0.265000 y=0.690000, B: x=0.150000 y=0.060000, White point: x=0.312700 y=0.329000
Mastering display luminance : min: 0.0050 cd/m2, max: 4000.0000 cd/m2
Maximum Content Light Level : 712 cd/m2
Maximum Frame-Average Light Level : 482 cd/m2

Audio #1
ID : 2
Format : AC-3
Format/Info : Audio Coding 3
Codec ID : A_AC3
Duration : 1 h 26 min
Bit rate mode : Constant
Bit rate : 448 kb/s
Channel(s) : 6 channels
Channel positions : Front: L C R, Side: L R, LFE
Sampling rate : 48.0 kHz
Frame rate : 31.250 FPS (1536 SPF)
Bit depth : 16 bits
Compression mode : Lossy
Stream size : 279 MiB (2%)
Title : Latino Mexicano AC3 5.1 448 kbps Bluray 4k
Language : Latin
Service kind : Complete Main
Default : Yes
Forced : No

Audio #2
ID : 3
Format : AC-3
Format/Info : Audio Coding 3
Codec ID : A_AC3
Duration : 1 h 26 min
Bit rate mode : Constant
Bit rate : 448 kb/s
Channel(s) : 6 channels
Channel positions : Front: L C R, Side: L R, LFE
Sampling rate : 48.0 kHz
Frame rate : 31.250 FPS (1536 SPF)
Bit depth : 16 bits
Compression mode : Lossy
Stream size : 279 MiB (2%)
Title : Latino Latinoamerica AC3 5.1 448 kbps Bluray 4k
Language : Latin
Service kind : Complete Main
Default : No
Forced : No

Audio #3
ID : 4
Format : DTS
Format/Info : Digital Theater Systems
Format profile : MA / Core
Codec ID : A_DTS
Duration : 1 h 26 min
Bit rate mode : Variable / Constant
Bit rate : 2 896 kb/s / 1 509 kb/s
Channel(s) : 8 channels / 6 channels
Channel positions : Front: L C R, Side: L R, Back: L R, LFE / Front: L C R, Side: L R, LFE
Sampling rate : 48.0 kHz
Frame rate : 93.750 FPS (512 SPF)
Bit depth : 16 bits
Compression mode : Lossless / Lossy
Stream size : 1.76 GiB (13%)
Title : Ingles DTS-HD MA/Core 8.1/5.1 1509 kbps Bluray 4k
Language : English
Default : No
Forced : No

Text #1
ID : 5
Format : UTF-8
Codec ID : S_TEXT/UTF8
Codec ID/Info : UTF-8 Plain Text
Duration : 1 h 22 min
Bit rate : 66 b/s
Count of elements : 1390
Stream size : 40.3 KiB (0%)
Title : Latino
Language : Latin
Default : No
Forced : No

Text #2
ID : 6
Format : UTF-8
Codec ID : S_TEXT/UTF8
Codec ID/Info : UTF-8 Plain Text
Duration : 1 h 17 min
Bit rate : 1 b/s
Count of elements : 33
Stream size : 736 Bytes (0%)
Title : Forzados
Language : Latin
Default : Yes
Forced : No

Text #3
ID : 7
Format : PGS
Muxing mode : zlib
Codec ID : S_HDMV/PGS
Codec ID/Info : Picture based subtitle format used on BDs/HD-DVDs
Duration : 1 h 26 min
Bit rate : 11.9 kb/s
Count of elements : 2782
Stream size : 7.34 MiB (0%)
Title : Latino
Language : Latin
Default : No
Forced : No

Text #4
ID : 8
Format : PGS
Muxing mode : zlib
Codec ID : S_HDMV/PGS
Codec ID/Info : Picture based subtitle format used on BDs/HD-DVDs
Duration : 1 h 21 min
Bit rate : 283 b/s
Count of elements : 68
Stream size : 169 KiB (0%)
Title : Forzados
Language : Latin
Default : No
Forced : No

Text #5
ID : 9
Format : PGS
Muxing mode : zlib
Codec ID : S_HDMV/PGS
Codec ID/Info : Picture based subtitle format used on BDs/HD-DVDs
Duration : 1 h 26 min
Bit rate : 16.0 kb/s
Count of elements : 3444
Stream size : 9.90 MiB (0%)
Title : Ingles
Language : English
Default : No
Forced : No



http://i.picasion.com/resize86/9844545824b3026d793bc689d2ca154c.jpg

https://2.bp.blogspot.com/-oTGD1TpkXkI/WmLDEDsOJzI/AAAAAAAACCQ/XZltumOFq6QAqk1vesaWEiHTAL6y2jXJQCLcBGAs/s1600/1.png

https://4.bp.blogspot.com/-_IDUGV3P4oI/WmLDEOg68RI/AAAAAAAACCc/VtFo6HmBKskfropTfFS8iVtH-JMcjJa-gCLcBGAs/s1600/2.png

https://1.bp.blogspot.com/-5GRUPwyoWCE/WmLDEDFLCwI/AAAAAAAACCU/zpdBLvJdXas6AiKqQ2GyeWWLhBz5FiJcACLcBGAs/s1600/3.png

https://1.bp.blogspot.com/-U5QBrdG5x8M/WmLDE_WwewI/AAAAAAAACCY/gokmMNie04UAl5URENH7CxH0mWwH-h71QCLcBGAs/s1600/4.png

https://1.bp.blogspot.com/-3lqmSgZNUeQ/WmLDFZDZXTI/AAAAAAAACCg/_TOfDXlRzkcIPsxvrJTzTAVbazz1OBYFACLcBGAs/s1600/5.png

DESCARGA


Links Intercambiables

https://3.bp.blogspot.com/-n3vyYws6udw/WYitgMOaduI/AAAAAAAA1L0/PE1jBg4l_7I2Cp9SjlekwnTQbXZwrQo3wCLcBGAs/s1600/1FICHIER-BANNER.png
**Hidden Content: Check the thread to see hidden data.**

http://2.bp.blogspot.com/-nXtN7MPZ_A8/VZab6hvUJRI/AAAAAAAAsNY/1VAgQ63UKOQ/s1600/MEGA-BANNER.png
**Hidden Content: Check the thread to see hidden data.**

http://3.bp.blogspot.com/-Yh5P3OSnxaQ/UOkNsmy5n6I/AAAAAAAAFG8/J9B4jZodRqM/s1600/UPLOADED_BANNER.png
**Hidden Content: Check the thread to see hidden data.**

https://1.bp.blogspot.com/-PE8m5kK7vYo/WJoNpVnuMnI/AAAAAAAA0go/jTlWOR0KOCEoUUzcNlzAqSRBkzh8nRT4QCLcB/s1600/OPENLOAD.png
**Hidden Content: Check the thread to see hidden data.**

https://4.bp.blogspot.com/-qqShfCTogHE/WaxnWvr1vHI/AAAAAAAAAL0/aTU3k5gHeNYqWMWsFEdXHF722AwHK0bewCLcBGAs/s1600/contrase%25C3%25B1a%2Bclub%2Bhd.jpg




www.club-hd.com

JCAvila
20/01/2018, 02:38
gracias!

LANINADULCE
20/01/2018, 02:39
Desc_g_

RESIDENT_EVIL
20/01/2018, 02:44
Desc_g_Desc_g_

Josiba
20/01/2018, 06:29
Desc_g_

virus619
20/01/2018, 09:17
Desc_g_

cpola
20/01/2018, 09:17
Gracias

muruagam
20/01/2018, 10:24
Desc_g_

samuelabad
20/01/2018, 13:23
Gracias

novatoxp
20/01/2018, 14:52
Desc_g_

juniorgarabo
20/01/2018, 15:39
Desc_g_

GASA2010
20/01/2018, 16:48
GRACIAS

SAAEDVI
20/01/2018, 17:13
me gusta

flujo
21/01/2018, 13:14
gracias

fedemuscarello
21/01/2018, 13:44
gracias

joelmax18
21/01/2018, 13:48
gracias

ismar360
22/01/2018, 09:03
Desc_g_

cripp
22/01/2018, 10:59
Gracias por compartir

gibrannr1
23/01/2018, 01:20
Desc_g_

tsubasa100
25/01/2018, 14:51
gracias!

cartilago
27/01/2018, 17:12
gracias

cpineda1972
29/01/2018, 20:57
EN 4K, como la veo?

fewac
30/01/2018, 21:39
Gracias!!!

DiegoAbrahamMamani
17/05/2018, 00:32
graciaSSSSSSSSSSSSSS