PDA

Ver la versión completa : Cars 3 (2017) 2160p 4k UHD HDR Dual Latino-Inglés [Subt. Esp] (Animación. Aventuras)



Brady
19/01/2018, 15:07
https://2.bp.blogspot.com/-2sNfv5Z-7-E/WmI1JorzvvI/AAAAAAAAB_8/evp3T2MUuxUsgHbA4AUe7sTYQKTFYkIvACLcBGAs/s1600/carrr.jpg


https://1.bp.blogspot.com/-s6PuW6TawPg/WaxnWg-5pPI/AAAAAAAAALs/OMh7vMt1tkAKRT8kSue_zxgG64KJ0Ss1ACLcBGAs/s1600/ficha%2Btecnica%2Bclub.jpg



Título Original: Cars 3
Año: 2017
Duración: 109 min.
País: https://www.filmaffinity.com/imgs/countries/US.jpg United States
Director: Brian Fee
Guion: Kiel Murray, Bob Peterson, Mike Rich (Historia: Brian Fee, Ben Queen, Eyal Podell, Jonathon E. Stewart)
Reparto: Animation
Productora: Pixar Animation Studios
Género: Animación. Aventuras. Comedia | Coches / Automovilismo. Secuela. 3-D. Pixar


SINOPSIS
Sorprendido por una nueva generación de corredores ultrarrápidos, el legendario Rayo McQueen queda relegado repentinamente del deporte que tanto ama. Para retomar su carrera, va a necesitar la ayuda de una joven mecánica de carreras, Cruz Ramírez, que tiene su propio plan para ganar, además de la inspiración del fallecido Fabuloso Hudson Hornet y un par de giros inesperados. ¡Y para probar que el nº95 no está ni mucho menos acabado, el campeón tendrá que poner a prueba su valía en el gran circuito de la Copa Piston!

TRAILER

https://www.youtube.com/watch?v=2LRq4WkpYJ8

Datos Técnicos
Video:
MPEGH HEVC / 2160p / High Profile 5.1 / 11.4 mbps

Audio:
Español Latino / E-AC3/Core 7.1/5.1 / 1024/576 kbps / 48kHz / Bluray 4k
Inglés / TrueHD/Atmos 7.1 / 4896/6966 kbps / 48kHz / Bluray 4k
Inglés / AC3 5.1 / 640 kbps / 48kHz / Bluray 4k

Subs:
Español Latino / SubRip / Bluray
Español Latino Forzados / SubRip / Bluray
Español Latino / Sup / Bluray 4k
PGS Inglés / Sup / Bluray 4k


General
Unique ID : 226903697756750691235311537010101721766 (0xAAB4100690F0169AABB7F47E362C1AA6)
Format : Matroska
Format version : Version 4 / Version 2
File size : 12.9 GiB
Duration : 1 h 42 min
Overall bit rate mode : Variable
Overall bit rate : 18.0 Mb/s
Encoded date : UTC 2018-01-19 09:39:54
Writing application : mkvmerge v9.9.0 ('Pick Up') 64bit
Writing library : libebml v1.3.4 + libmatroska v1.4.5
Uploader : Brady
Web : www.club-hd.com

Video
ID : 1
Format : HEVC
Format/Info : High Efficiency Video Coding
Format profile : Main 10@L5.1@High
Codec ID : V_MPEGH/ISO/HEVC
Duration : 1 h 42 min
Bit rate : 11.4 Mb/s
Width : 3 840 pixels
Height : 1 608 pixels
Display aspect ratio : 2.40:1
Frame rate mode : Constant
Frame rate : 23.976 (24000/1001) FPS
Color space : YUV
Chroma subsampling : 4:2:0 (Type 2)
Bit depth : 10 bits
Bits/(Pixel*Frame) : 0.077
Stream size : 8.13 GiB (63%)
Writing library : x265 2.5+58-06979c042350:[Windows][GCC 6.2.1][64 bit] 10bit
Encoding settings : cpuid=1173503 / frame-threads=4 / numa-pools=16 / wpp / no-pmode / no-pme / no-psnr / no-ssim / log-level=2 / input-csp=1 / input-res=3840x1608 / interlace=0 / total-frames=147333 / level-idc=51 / high-tier=1 / uhd-bd=0 / ref=4 / no-allow-non-conformance / repeat-headers / annexb / aud / hrd / info / hash=0 / no-temporal-layers / no-open-gop / min-keyint=1 / keyint=24 / bframes=4 / b-adapt=2 / b-pyramid / bframe-bias=0 / rc-lookahead=25 / lookahead-slices=4 / scenecut=40 / no-intra-refresh / ctu=64 / min-cu-size=8 / rect / no-amp / max-tu-size=32 / tu-inter-depth=1 / tu-intra-depth=1 / limit-tu=0 / rdoq-level=2 / dynamic-rd=0.00 / no-ssim-rd / signhide / no-tskip / nr-intra=0 / nr-inter=0 / no-constrained-intra / no-strong-intra-smoothing / max-merge=3 / limit-refs=3 / limit-modes / me=3 / subme=3 / merange=57 / temporal-mvp / weightp / no-weightb / no-analyze-src-pics / deblock=-3:-3 / no-sao / no-sao-non-deblock / rd=4 / no-early-skip / rskip / no-fast-intra / no-tskip-fast / no-cu-lossless / no-b-intra / no-splitrd-skip / rdpenalty=0 / psy-rd=2.00 / psy-rdoq=1.00 / no-rd-refine / analysis-reuse-mode=0 / no-lossless / cbqpoffs=0 / crqpoffs=0 / rc=crf / crf=17.0 / qcomp=0.60 / qpstep=4 / stats-write=0 / stats-read=0 / vbv-maxrate=160000 / vbv-bufsize=160000 / vbv-init=0.9 / crf-max=0.0 / crf-min=0.0 / ipratio=1.40 / pbratio=1.30 / aq-mode=1 / aq-strength=1.00 / cutree / zone-count=0 / no-strict-cbr / qg-size=32 / no-rc-grain / qpmax=69 / qpmin=0 / no-const-vbv / sar=1 / overscan=0 / videoformat=5 / range=0 / colorprim=9 / transfer=16 / colormatrix=9 / chromaloc=1 / chromaloc-top=2 / chromaloc-bottom=2 / display-window=0 / master-display=G(13250,34500)B(7500,3000)R(34000,16000)WP(15635,16450)L(10000000,0) / max-cll=0,0 / min-luma=0 / max-luma=1023 / log2-max-poc-lsb=8 / vui-timing-info / vui-hrd-info / slices=1 / no-opt-qp-pps / no-opt-ref-list-length-pps / no-multi-pass-opt-rps / scenecut-bias=0.05 / no-opt-cu-delta-qp / no-aq-motion / hdr / hdr-opt / no-dhdr10-opt / analysis-reuse-level=5 / scale-factor=0 / refine-intra=0 / refine-inter=0 / refine-mv=0 / no-limit-sao / ctu-info=0 / no-lowpass-dct / refine-mv-type=0 / copy-pic=1
Language : English
Default : Yes
Forced : No
Color range : Limited
Color primaries : BT.2020
Transfer characteristics : PQ
Matrix coefficients : BT.2020 non-constant
Mastering display color primaries : R: x=0.680000 y=0.320000, G: x=0.265000 y=0.690000, B: x=0.150000 y=0.060000, White point: x=0.312700 y=0.329000
Mastering display luminance : min: 0.0000 cd/m2, max: 1000.0000 cd/m2

Audio #1
ID : 2
Format : E-AC-3
Format/Info : Enhanced Audio Coding 3
Codec ID : A_EAC3
Duration : 1 h 42 min
Bit rate mode : Constant
Bit rate : 500 b/s
Channel(s) : 6 channels
Channel positions : Front: L C R, Side: L R, LFE
Sampling rate : 48.0 kHz
Frame rate : 187.500 FPS (256 SPF)
Compression mode : Lossy
Stream size : 750 MiB (6%)
Title : Latino E-AC3/Core 7.1/5.1 1024/576 kbps Bluray 4k
Language : Latin
Service kind : Complete Main
Default : Yes
Forced : No

Audio #2
ID : 3
Format : TrueHD
Format profile : TrueHD+Atmos / TrueHD
Codec ID : A_TRUEHD
Duration : 1 h 42 min
Bit rate mode : Variable
Bit rate : 4 896 kb/s
Maximum bit rate : 6 966 kb/s
Channel(s) : Object Based / 8 channels
Channel positions : Object Based / Front: L C R, Side: L R, Back: L R, LFE
Sampling rate : / 48.0 kHz
Frame rate : 1 200.000 FPS (40 SPF)
Compression mode : Lossless
Stream size : 3.50 GiB (27%)
Title : Ingles TrueHD/Atmos 7.1 4896/6966 kbps Bluray 4k
Language : English
Default : No
Forced : No

Audio #3
ID : 4
Format : AC-3
Format/Info : Audio Coding 3
Codec ID : A_AC3
Duration : 1 h 42 min
Bit rate mode : Constant
Bit rate : 640 kb/s
Channel(s) : 6 channels
Channel positions : Front: L C R, Side: L R, LFE
Sampling rate : 48.0 kHz
Frame rate : 31.250 FPS (1536 SPF)
Bit depth : 16 bits
Compression mode : Lossy
Stream size : 469 MiB (4%)
Title : Ingles AC3 5.1 640 kbps Bluray 4k
Language : English
Service kind : Complete Main
Default : No
Forced : No

Text #1
ID : 5
Format : UTF-8
Codec ID : S_TEXT/UTF8
Codec ID/Info : UTF-8 Plain Text
Duration : 1 h 40 min
Bit rate : 80 b/s
Count of elements : 1438
Stream size : 59.5 KiB (0%)
Title : Latino
Language : Latin
Default : No
Forced : No

Text #2
ID : 6
Format : UTF-8
Codec ID : S_TEXT/UTF8
Codec ID/Info : UTF-8 Plain Text
Duration : 1 h 30 min
Bit rate : 0 b/s
Count of elements : 17
Stream size : 622 Bytes (0%)
Title : Forzados
Language : Latin
Default : Yes
Forced : No

Text #3
ID : 7
Format : PGS
Muxing mode : zlib
Codec ID : S_HDMV/PGS
Codec ID/Info : Picture based subtitle format used on BDs/HD-DVDs
Duration : 1 h 40 min
Bit rate : 14.7 kb/s
Count of elements : 2878
Stream size : 10.6 MiB (0%)
Title : Latino
Language : Latin
Default : No
Forced : No

Text #4
ID : 8
Format : PGS
Muxing mode : zlib
Codec ID : S_HDMV/PGS
Codec ID/Info : Picture based subtitle format used on BDs/HD-DVDs
Duration : 1 h 40 min
Bit rate : 18.6 kb/s
Count of elements : 3860
Stream size : 13.4 MiB (0%)
Title : Ingles
Language : English
Default : No
Forced : No



http://i.picasion.com/resize86/9844545824b3026d793bc689d2ca154c.jpg

https://4.bp.blogspot.com/-LYqVSWfLW88/WmI4k9SwHcI/AAAAAAAACAk/ithTiGCOhU0THTgetJeCxZ1uyJZLNDdOACLcBGAs/s1600/6.png

https://3.bp.blogspot.com/-a4kHjhhONyI/WmI4lCT6OtI/AAAAAAAACAo/9MStdRkTQLUMfOw21Zo_X7_uiSomK1zfgCLcBGAs/s1600/7.png

https://1.bp.blogspot.com/-Q16PE6-CFBg/WmI4lK0_0GI/AAAAAAAACAs/TVrTpZBAuycUynFqRYkMSQOOSXcWm4dDwCLcBGAs/s1600/8.png

https://4.bp.blogspot.com/-M3Pf-DDrEqw/WmI4lfRin8I/AAAAAAAACAw/mK9Mnvk-4YQViBsZ7su9kiZifw9xwDYyQCLcBGAs/s1600/9.png

https://3.bp.blogspot.com/-Lz1V0wTSN2Q/WmI4jUSa7JI/AAAAAAAACAU/2nf-HMURAY0VBSXqBLt0tT6UWxgcUzDxACLcBGAs/s1600/10.png

DESCARGA


Links Intercambiables

https://3.bp.blogspot.com/-n3vyYws6udw/WYitgMOaduI/AAAAAAAA1L0/PE1jBg4l_7I2Cp9SjlekwnTQbXZwrQo3wCLcBGAs/s1600/1FICHIER-BANNER.png
**Hidden Content: Check the thread to see hidden data.**

http://2.bp.blogspot.com/-nXtN7MPZ_A8/VZab6hvUJRI/AAAAAAAAsNY/1VAgQ63UKOQ/s1600/MEGA-BANNER.png
**Hidden Content: Check the thread to see hidden data.**

http://3.bp.blogspot.com/-Yh5P3OSnxaQ/UOkNsmy5n6I/AAAAAAAAFG8/J9B4jZodRqM/s1600/UPLOADED_BANNER.png
**Hidden Content: Check the thread to see hidden data.**

https://1.bp.blogspot.com/-PE8m5kK7vYo/WJoNpVnuMnI/AAAAAAAA0go/jTlWOR0KOCEoUUzcNlzAqSRBkzh8nRT4QCLcB/s1600/OPENLOAD.png
**Hidden Content: Check the thread to see hidden data.**

https://4.bp.blogspot.com/-qqShfCTogHE/WaxnWvr1vHI/AAAAAAAAAL0/aTU3k5gHeNYqWMWsFEdXHF722AwHK0bewCLcBGAs/s1600/contrase%25C3%25B1a%2Bclub%2Bhd.jpg




www.club-hd.com

mechero
19/01/2018, 15:19
claro que me la llevo apara mis hijos,muchas gracias brady por este magnifico aporteDesc_g_Pl4yb0y

Josiba
19/01/2018, 16:47
Desc_g_

GASA2010
19/01/2018, 16:59
GRACIAS

JCAvila
19/01/2018, 17:38
gracias!

St@rLord
19/01/2018, 17:48
Buena Brady Desc_g_

SAAEDVI
19/01/2018, 19:57
me gusta

herbard
19/01/2018, 21:28
Desc_g_

samuelabad
19/01/2018, 22:41
Gracias

mario e
20/01/2018, 00:46
Desc_g_

aguilaamerica99
20/01/2018, 01:35
descargando...

LANINADULCE
20/01/2018, 02:38
Desc_g_

RESIDENT_EVIL
20/01/2018, 02:45
Desc_g_Desc_g_

cpola
20/01/2018, 09:16
Gracias

muruagam
20/01/2018, 10:24
Desc_g_

crischapman
20/01/2018, 12:42
Gracias!

novatoxp
20/01/2018, 14:51
Desc_g_

juniorgarabo
20/01/2018, 15:39
Desc_g_

maz1973
20/01/2018, 17:43
muchas gracias

odoc
21/01/2018, 00:20
mi hijo se pone felizmente saber esta maravillas de calidad

Tamara23
21/01/2018, 00:49
Desc_g_

flujo
21/01/2018, 13:15
gracias

ultimateleecher
21/01/2018, 14:16
graciaaaaasssssss Desc_g_ :frio:

troyano2010
21/01/2018, 18:35
Desc_g_

ismar360
22/01/2018, 09:03
Desc_g_

cripp
22/01/2018, 11:00
Gracias por compartir

xikoh99
22/01/2018, 21:42
Desc_g_

Pte.A.Carmine
23/01/2018, 14:36
Gracias.

Tiene desfase en el audio latino, o es sólo mi TV?
Cómo lo arreglan ustedes?

HemoAr
23/01/2018, 15:15
Gracias.

Tiene desfase en el audio latino, o es sólo mi TV?
Cómo lo arreglan ustedes?

Si el aporte tiene desfase en el Audio Latino
Entonces tienes que muxear nueamente pero ya con el delay correcto + ó -

Brady
23/01/2018, 16:22
Gracias.

Tiene desfase en el audio latino, o es sólo mi TV?
Cómo lo arreglan ustedes?

solo debe ser en tu tv, porque el audio es directo del bluray 4k y el rip es ripeado directo del bluray 4k por lo tanto no debe haber delay revisalo bien en tu tv

mmartelli
23/01/2018, 21:06
BAJANDO GRACIAS

eabadia
24/01/2018, 11:15
bajando

tsubasa100
25/01/2018, 14:52
gracias!

Frank
27/01/2018, 02:00
gracias

PANCHOJAM
29/01/2018, 21:59
Gracias...una buena peli para el fin de semana.

fewac
30/01/2018, 21:37
Gracias!!!

PANCHOJAM
01/02/2018, 12:40
Audio Latino desfazado ...

Limberth1
07/02/2018, 11:26
gracias

anjito
18/02/2018, 08:06
gracias

anjito
18/02/2018, 08:18
gracias

fernandoherb
12/03/2018, 14:04
Desc_g_

fuenric
13/03/2018, 20:28
Gracias!

Edu_Alvarado
14/03/2018, 00:51
gracias

joelmax18
09/04/2018, 21:34
gracias

blaster
11/04/2018, 00:40
Muchas Gracias!!!

panxo
16/05/2018, 00:16
gracias !!

gustajbroldan
21/05/2018, 00:52
Muchas gracias por su valioso trabajo

juliobr
21/05/2018, 20:02
Gracias

pipi__
21/06/2018, 15:25
Gracias

ecuavideos
22/06/2018, 07:24
gracias

gaston82
01/07/2018, 22:44
Desc_g_

veloxoko
09/07/2018, 13:51
Desc_g_

gabrielx5
22/07/2018, 11:06
gracias

gabrielx5
22/07/2018, 12:36
el audio latino esta desfasado

Tony Stark
23/07/2018, 15:12
Desc_g_

totofloyd
06/08/2018, 16:40
Desc_g_

Limberth1
13/08/2018, 10:31
Buenas pueden arreglar el audio latino?... esta desfasado!!!