PDA

Ver la versión completa : King Arthur: Legend Of The Sword (2017) 2160p 4k UHD HDR Dual Latino-Inglés [Subt. Esp] (Fantástico. Acción)



Brady
02/12/2017, 07:15
https://3.bp.blogspot.com/-tzOPMgHKhiQ/WiEw1BH4OFI/AAAAAAAABWg/LNjY6GDgCV4KpoxjObLE6_7lyyOJe-_fQCLcBGAs/s1600/king.jpg


https://1.bp.blogspot.com/-s6PuW6TawPg/WaxnWg-5pPI/AAAAAAAAALs/OMh7vMt1tkAKRT8kSue_zxgG64KJ0Ss1ACLcBGAs/s1600/ficha%2Btecnica%2Bclub.jpg



Título Original: King Arthur: Legend Of The Sword
Año: 2017
Duración: 126 min.
País: https://www.filmaffinity.com/imgs/countries/US.jpg United States
Director: Guy Ritchie
Guion: Joby Harold, Guy Ritchie, Lionel Wigram (Historia: David Dobkin, Joby Harold)
Productora: Warner Bros. Pictures / Village Roadshow Pictures / Weed Road Pictures
Género: Fantástico. Acción | Edad Media. Capa y espada. Espada y brujería


SINOPSIS
Arturo es un joven intrépido que dirige a su pandilla por los callejones de Londonium. Tras sacar la espada de Excalibur, se verá obligado a tomar algunas duras decisiones. Junto a una misteriosa mujer llamada Guinevere, deberá aprender a manejar la espada, vencer a sus demonios y unir al pueblo para derrotar al tirano Vortigern, quien robó su corona y asesinó a sus padres antes de convertirse en rey.

TRAILER

https://www.youtube.com/watch?v=6rbPTQIdjmY

Datos Técnicos
Video:
MPEGH HEVC / 2160p / High Profile 5.1 / 16.9 mbps

Audio:
Español Latino / AC3 5.1 / 448 kbps / 48kHz / Bluray 4k
Inglés / TrueHD/Atmos 7.1 / 3748/6243 kbps / 48kHz / Bluray 4k
Inglés / AC3 5.1 / 448 kbps / 48kHz / Bluray 4k

Subs:
Español Latino / SubRip / Bluray 4k
Español Latino / Sup / Bluray 4k
Inglés / Sup / Bluray 4k


General
Unique ID : 173756275575375572503970118079389709275 (0x82B83DCD695BD8E6A692F13ADA3133DB)
Format : Matroska
Format version : Version 4 / Version 2
File size : 19.1 GiB
Duration : 2 h 6 min
Overall bit rate mode : Variable
Overall bit rate : 21.7 Mb/s
Encoded date : UTC 2017-12-01 11:22:25
Writing application : mkvmerge v9.9.0 ('Pick Up') 64bit
Writing library : libebml v1.3.4 + libmatroska v1.4.5
Uploader : Brady
Web : www.club-hd.com

Video
ID : 1
Format : HEVC
Format/Info : High Efficiency Video Coding
Format profile : Main 10@L5.1@High
Codec ID : V_MPEGH/ISO/HEVC
Duration : 2 h 6 min
Bit rate : 16.9 Mb/s
Width : 3 840 pixels
Height : 1 600 pixels
Display aspect ratio : 2.40:1
Frame rate mode : Constant
Frame rate : 23.976 (24000/1001) FPS
Color space : YUV
Chroma subsampling : 4:2:0 (Type 2)
Bit depth : 10 bits
Bits/(Pixel*Frame) : 0.115
Stream size : 14.9 GiB (78%)
Writing library : x265 2.5+58-06979c042350:[Windows][GCC 6.2.1][64 bit] 10bit
Encoding settings : cpuid=1173503 / frame-threads=4 / numa-pools=16 / wpp / no-pmode / no-pme / no-psnr / no-ssim / log-level=2 / input-csp=1 / input-res=3840x1600 / interlace=0 / total-frames=181559 / level-idc=51 / high-tier=1 / uhd-bd=0 / ref=4 / no-allow-non-conformance / repeat-headers / annexb / aud / hrd / info / hash=0 / no-temporal-layers / no-open-gop / min-keyint=1 / keyint=24 / bframes=4 / b-adapt=2 / b-pyramid / bframe-bias=0 / rc-lookahead=25 / lookahead-slices=4 / scenecut=40 / no-intra-refresh / ctu=64 / min-cu-size=8 / rect / no-amp / max-tu-size=32 / tu-inter-depth=1 / tu-intra-depth=1 / limit-tu=0 / rdoq-level=2 / dynamic-rd=0.00 / no-ssim-rd / signhide / no-tskip / nr-intra=0 / nr-inter=0 / no-constrained-intra / no-strong-intra-smoothing / max-merge=3 / limit-refs=3 / limit-modes / me=3 / subme=3 / merange=57 / temporal-mvp / weightp / no-weightb / no-analyze-src-pics / deblock=-3:-3 / no-sao / no-sao-non-deblock / rd=4 / no-early-skip / rskip / no-fast-intra / no-tskip-fast / no-cu-lossless / no-b-intra / no-splitrd-skip / rdpenalty=0 / psy-rd=2.00 / psy-rdoq=1.00 / no-rd-refine / analysis-reuse-mode=0 / no-lossless / cbqpoffs=0 / crqpoffs=0 / rc=crf / crf=17.0 / qcomp=0.60 / qpstep=4 / stats-write=0 / stats-read=0 / vbv-maxrate=160000 / vbv-bufsize=160000 / vbv-init=0.9 / crf-max=0.0 / crf-min=0.0 / ipratio=1.40 / pbratio=1.30 / aq-mode=1 / aq-strength=1.00 / cutree / zone-count=0 / no-strict-cbr / qg-size=32 / no-rc-grain / qpmax=69 / qpmin=0 / no-const-vbv / sar=1 / overscan=0 / videoformat=5 / range=0 / colorprim=9 / transfer=16 / colormatrix=9 / chromaloc=1 / chromaloc-top=2 / chromaloc-bottom=2 / display-window=0 / master-display=G(13250,34500)B(7500,3000)R(34000,16000)WP(15635,16450)L(40000000,50) / max-cll=2278,195 / min-luma=0 / max-luma=1023 / log2-max-poc-lsb=8 / vui-timing-info / vui-hrd-info / slices=1 / no-opt-qp-pps / no-opt-ref-list-length-pps / no-multi-pass-opt-rps / scenecut-bias=0.05 / no-opt-cu-delta-qp / no-aq-motion / hdr / hdr-opt / no-dhdr10-opt / analysis-reuse-level=5 / scale-factor=0 / refine-intra=0 / refine-inter=0 / refine-mv=0 / no-limit-sao / ctu-info=0 / no-lowpass-dct / refine-mv-type=0 / copy-pic=1
Language : English
Default : Yes
Forced : No
Color range : Limited
Color primaries : BT.2020
Transfer characteristics : PQ
Matrix coefficients : BT.2020 non-constant
Mastering display color primaries : R: x=0.680000 y=0.320000, G: x=0.265000 y=0.690000, B: x=0.150000 y=0.060000, White point: x=0.312700 y=0.329000
Mastering display luminance : min: 0.0050 cd/m2, max: 4000.0000 cd/m2
Maximum Content Light Level : 2278 cd/m2
Maximum Frame-Average Light Level : 195 cd/m2

Audio #1
ID : 2
Format : AC-3
Format/Info : Audio Coding 3
Codec ID : A_AC3
Duration : 2 h 6 min
Bit rate mode : Constant
Bit rate : 448 kb/s
Channel(s) : 6 channels
Channel positions : Front: L C R, Side: L R, LFE
Sampling rate : 48.0 kHz
Frame rate : 31.250 FPS (1536 SPF)
Bit depth : 16 bits
Compression mode : Lossy
Stream size : 404 MiB (2%)
Title : Latino AC3 5.1 448 kbps Bluray 4k
Language : Latin
Service kind : Complete Main
Default : Yes
Forced : No

Audio #2
ID : 3
Format : TrueHD
Format profile : TrueHD+Atmos / TrueHD
Codec ID : A_TRUEHD
Duration : 2 h 6 min
Bit rate mode : Variable
Bit rate : 3 748 kb/s
Maximum bit rate : 6 243 kb/s
Channel(s) : Object Based / 8 channels
Channel positions : Object Based / Front: L C R, Side: L R, Back: L R, LFE
Sampling rate : / 48.0 kHz
Frame rate : 1 200.000 FPS (40 SPF)
Compression mode : Lossless
Stream size : 3.30 GiB (17%)
Title : Ingles TrueHD/Atmos 7.1 3748/6243 kbps Bluray 4k
Language : English
Default : No
Forced : No

Audio #3
ID : 4
Format : AC-3
Format/Info : Audio Coding 3
Codec ID : A_AC3
Duration : 2 h 6 min
Bit rate mode : Constant
Bit rate : 448 kb/s
Channel(s) : 6 channels
Channel positions : Front: L C R, Side: L R, LFE
Sampling rate : 48.0 kHz
Frame rate : 31.250 FPS (1536 SPF)
Bit depth : 16 bits
Compression mode : Lossy
Stream size : 404 MiB (2%)
Title : Ingles AC3 5.1 448 kbps Bluray 4k
Language : English
Service kind : Complete Main
Default : No
Forced : No

Text #1
ID : 5
Format : UTF-8
Codec ID : S_TEXT/UTF8
Codec ID/Info : UTF-8 Plain Text
Duration : 1 h 57 min
Bit rate : 40 b/s
Count of elements : 1264
Stream size : 34.7 KiB (0%)
Title : Latino
Language : Latin
Default : No
Forced : No

Text #2
ID : 6
Format : PGS
Muxing mode : zlib
Codec ID : S_HDMV/PGS
Codec ID/Info : Picture based subtitle format used on BDs/HD-DVDs
Duration : 2 h 4 min
Bit rate : 7 452 b/s
Count of elements : 2532
Stream size : 6.65 MiB (0%)
Title : Latino
Language : Latin
Default : No
Forced : No

Text #3
ID : 7
Format : PGS
Muxing mode : zlib
Codec ID : S_HDMV/PGS
Codec ID/Info : Picture based subtitle format used on BDs/HD-DVDs
Duration : 2 h 4 min
Bit rate : 9 346 b/s
Count of elements : 2904
Stream size : 8.30 MiB (0%)
Title : Ingles
Language : English
Default : No
Forced : No



http://i.picasion.com/resize86/9844545824b3026d793bc689d2ca154c.jpg

https://1.bp.blogspot.com/-9yJkLMGYjFU/WiKCDe4rEVI/AAAAAAAABXg/hDTnoV1aaCsEopqJ1zjZn_VdLWfMF1j0ACLcBGAs/s1600/1.png

https://2.bp.blogspot.com/-kqcGLMMjQlI/WiKCDfMkfBI/AAAAAAAABXo/8n5ZWjlXMXAt1Oz4rL1Uy2BD16zrXiuWwCLcBGAs/s1600/2.png

https://4.bp.blogspot.com/-VFopRPKb5EM/WiKCERE1jJI/AAAAAAAABXs/N41-KpX7zdouI7XwI4acjzbyHY6-RyfBwCLcBGAs/s1600/3.png

https://4.bp.blogspot.com/-vdtT1HHJO6E/WiKCEu7BrqI/AAAAAAAABXw/ZZ8A4MpiOIMIaIIgz-ry70L9YvZirVwZQCLcBGAs/s1600/4.png

https://2.bp.blogspot.com/-ztckDcscfHM/WiKCEs98MRI/AAAAAAAABX0/r6cTlrY4gnI-XU-6K1QCiGIETwqMeZ-CQCLcBGAs/s1600/5.png

DESCARGA


Links Intercambiables

https://3.bp.blogspot.com/-n3vyYws6udw/WYitgMOaduI/AAAAAAAA1L0/PE1jBg4l_7I2Cp9SjlekwnTQbXZwrQo3wCLcBGAs/s1600/1FICHIER-BANNER.png
**Hidden Content: Check the thread to see hidden data.**

http://2.bp.blogspot.com/-nXtN7MPZ_A8/VZab6hvUJRI/AAAAAAAAsNY/1VAgQ63UKOQ/s1600/MEGA-BANNER.png
**Hidden Content: Check the thread to see hidden data.**

http://3.bp.blogspot.com/-Yh5P3OSnxaQ/UOkNsmy5n6I/AAAAAAAAFG8/J9B4jZodRqM/s1600/UPLOADED_BANNER.png
**Hidden Content: Check the thread to see hidden data.**

https://1.bp.blogspot.com/-PE8m5kK7vYo/WJoNpVnuMnI/AAAAAAAA0go/jTlWOR0KOCEoUUzcNlzAqSRBkzh8nRT4QCLcB/s1600/OPENLOAD.png
**Hidden Content: Check the thread to see hidden data.**

https://4.bp.blogspot.com/-qqShfCTogHE/WaxnWvr1vHI/AAAAAAAAAL0/aTU3k5gHeNYqWMWsFEdXHF722AwHK0bewCLcBGAs/s1600/contrase%25C3%25B1a%2Bclub%2Bhd.jpg




www.club-hd.com

Josiba
02/12/2017, 10:33
Desc_g_

cpola
02/12/2017, 10:42
Gracias

pablozoladz
02/12/2017, 10:49
Desc_g_

strider_01
02/12/2017, 13:39
Desc_g_

JCAvila
02/12/2017, 15:18
gracias!

flujo
02/12/2017, 16:03
gracias

virus619
02/12/2017, 17:44
Desc_g_

SAAEDVI
02/12/2017, 19:46
me gusta

intruzocdr
02/12/2017, 20:53
GROSSOS

Josesabino07
02/12/2017, 22:05
gracias

crischapman
02/12/2017, 22:24
Gracias!

tsubasa100
02/12/2017, 22:41
Gracias

mathiasfx
03/12/2017, 08:12
Gracias!

novatoxp
03/12/2017, 13:40
Desc_g_

jramirez05
03/12/2017, 23:49
gracias

coyote81
04/12/2017, 01:27
muchisimasss graciassssss!!

ismar360
04/12/2017, 01:50
Desc_g_

PATRICIOG
04/12/2017, 11:24
Desc_g_

stelgerw
04/12/2017, 11:43
descarganmdo

SAAEDVI
04/12/2017, 21:43
ME GUSTA

juniorgarabo
05/12/2017, 06:10
Desc_g_

cripp
05/12/2017, 10:34
Gracias por compartir

HendriX GonzáleZ
05/12/2017, 21:35
Desc_g_

iori_2700
10/12/2017, 15:35
Desc_g_ GRACIAS

sosalexfame
10/12/2017, 22:07
gracias

el guicho
11/12/2017, 00:41
gracias

GASA2010
11/12/2017, 21:45
GRACIAS

danyesman
12/12/2017, 22:33
gracias

joelmax18
13/12/2017, 00:04
gracias

jpabloy
14/12/2017, 13:05
toca verla

lpdavila85
18/12/2017, 04:13
Desc_g_

Ferosito2129
19/12/2017, 00:21
super peliculon... gracias

fewac
21/12/2017, 03:04
gracias!!!

mx777
21/12/2017, 09:32
Desc_g_

droonsdragons
22/12/2017, 18:46
Desc_g_:pulgar2:

argentum
24/12/2017, 13:59
gracias amigos , definitivamente q buenas pelis

chevy
25/12/2017, 06:28
gracias!

jcvallenato
28/12/2017, 13:30
Muchas gracias

jairfon28
30/12/2017, 01:55
Gracias..

frankan85
04/01/2018, 12:53
gracias

Dumas
09/01/2018, 12:43
Desc_g_

mcasti61
11/01/2018, 18:47
Vamos por un mas en 4k

maxi2883
12/01/2018, 19:10
:dplgar:

xikoh99
22/01/2018, 22:02
Desc_g_

gabu14_07
03/02/2018, 15:46
GRACIAS

gabrielx5
11/02/2018, 12:39
gracias

alejavega
19/02/2018, 20:21
Muchas gracias

msr.1899
21/02/2018, 21:25
Gracias

juancholi
21/04/2018, 16:40
Desc_g_