PDA

Ver la versión completa : Blade Runner: The Final Cut (1982) 2160p 4k UHD HDR Dual Latino-Inglés [Subt. Esp] (Ciencia Ficción. Acción)



Brady
25/11/2017, 20:55
https://2.bp.blogspot.com/-dNyn4Ca80NU/WhatAwUpr5I/AAAAAAAABLM/dwH3_-rq3Xk4GQTcOWypQgynjbQrJroRwCLcBGAs/s1600/de.jpg


https://1.bp.blogspot.com/-s6PuW6TawPg/WaxnWg-5pPI/AAAAAAAAALs/OMh7vMt1tkAKRT8kSue_zxgG64KJ0Ss1ACLcBGAs/s1600/ficha%2Btecnica%2Bclub.jpg



Título Original: Blade Runner
Año: 1982
Duración: 117 min.
País: https://www.filmaffinity.com/imgs/countries/US.jpg United States
Director: Ridley Scott
Guion: David Webb Peoples, Hampton Fancher (Novela: Philip K. Dick)
Productora: Warner Bros. / Ladd Company / Shaw Brothers
Género: Ciencia ficción. Acción | Neo-noir. Thriller futurista. Cyberpunk. Distopía. Robots. Película de culto


SINOPSIS
A principios del siglo XXI, la poderosa Tyrell Corporation creó, gracias a los avances de la ingeniería genética, un robot llamado Nexus 6, un ser virtualmente idéntico al hombre pero superior a él en fuerza y agilidad, al que se dio el nombre de Replicante. Estos robots trabajaban como esclavos en las colonias exteriores de la Tierra. Después de la sangrienta rebelión de un equipo de Nexus-6, los Replicantes fueron desterrados de la Tierra. Brigadas especiales de policía, los Blade Runners, tenían órdenes de matar a todos los que no hubieran acatado la condena. Pero a esto no se le llamaba ejecución, se le llamaba "retiro". Tras un grave incidente, el ex Blade Runner Rick Deckard es llamado de nuevo al servicio para encontrar y "retirar" a unos replicantes rebeldes.

TRAILER

https://www.youtube.com/watch?v=BvlRS9hsOb4

Datos Técnicos
Video:
MPEGH HEVC / 2160p / High Profile 5.1 / 33.3 mbps

Audio:
Español Latino / AC3 2.0 / 192 kbps / 48kHz / Bluray 4k
Inglés / TrueHD/Atmos 7.1 / 4336/7305 kbps / 48kHz / Bluray 4k
Inglés / AC3 5.1 / 448 kbps / 48kHz / Bluray 4k

Subs:
Español Latino / Sup / Bluray 4k
Inglés / Sup / Bluray 4k


General
Unique ID : 243990813690314445642982854447733993676 (0xB78EEBE27421F439A43FA9D17E00F0CC)
Format : Matroska
Format version : Version 4 / Version 2
File size : 31.5 GiB
Duration : 1 h 57 min
Overall bit rate mode : Variable
Overall bit rate : 38.3 Mb/s
Encoded date : UTC 2017-11-25 09:02:53
Writing application : mkvmerge v9.9.0 ('Pick Up') 64bit
Writing library : libebml v1.3.4 libmatroska v1.4.5
Uploader : Brady
Web : www.club-hd.com

Video
ID : 1
Format : HEVC
Format/Info : High Efficiency Video Coding
Format profile : Main 10@L5.1@High
Codec ID : V_MPEGH/ISO/HEVC
Duration : 1 h 57 min
Bit rate : 33.3 Mb/s
Width : 3 840 pixels
Height : 1 600 pixels
Display aspect ratio : 2.40:1
Frame rate mode : Constant
Frame rate : 23.976 (24000/1001) FPS
Color space : YUV
Chroma subsampling : 4:2:0 (Type 2)
Bit depth : 10 bits
Bits/(Pixel*Frame) : 0.226
Stream size : 27.3 GiB (87%)
Writing library : x265 2.5 58-06979c042350:[Windows][GCC 6.2.1][64 bit] 10bit
Encoding settings : cpuid=1173503 / frame-threads=4 / numa-pools=20 / wpp / no-pmode / no-pme / no-psnr / no-ssim / log-level=2 / input-csp=1 / input-res=3840x1600 / interlace=0 / total-frames=169064 / level-idc=51 / high-tier=1 / uhd-bd=0 / ref=4 / no-allow-non-conformance / repeat-headers / annexb / aud / hrd / info / hash=0 / no-temporal-layers / no-open-gop / min-keyint=1 / keyint=24 / bframes=4 / b-adapt=2 / b-pyramid / bframe-bias=0 / rc-lookahead=25 / lookahead-slices=4 / scenecut=40 / no-intra-refresh / ctu=64 / min-cu-size=8 / rect / no-amp / max-tu-size=32 / tu-inter-depth=1 / tu-intra-depth=1 / limit-tu=0 / rdoq-level=2 / dynamic-rd=0.00 / no-ssim-rd / signhide / no-tskip / nr-intra=0 / nr-inter=0 / no-constrained-intra / no-strong-intra-smoothing / max-merge=3 / limit-refs=3 / limit-modes / me=3 / subme=3 / merange=57 / temporal-mvp / weightp / no-weightb / no-analyze-src-pics / deblock=-3:-3 / no-sao / no-sao-non-deblock / rd=4 / no-early-skip / rskip / no-fast-intra / no-tskip-fast / no-cu-lossless / no-b-intra / no-splitrd-skip / rdpenalty=0 / psy-rd=2.00 / psy-rdoq=1.00 / no-rd-refine / analysis-reuse-mode=0 / no-lossless / cbqpoffs=0 / crqpoffs=0 / rc=crf / crf=21.0 / qcomp=0.60 / qpstep=4 / stats-write=0 / stats-read=0 / vbv-maxrate=160000 / vbv-bufsize=160000 / vbv-init=0.9 / crf-max=0.0 / crf-min=0.0 / ipratio=1.40 / pbratio=1.30 / aq-mode=1 / aq-strength=1.00 / cutree / zone-count=0 / no-strict-cbr / qg-size=32 / no-rc-grain / qpmax=69 / qpmin=0 / no-const-vbv / sar=1 / overscan=0 / videoformat=5 / range=0 / colorprim=9 / transfer=16 / colormatrix=9 / chromaloc=1 / chromaloc-top=2 / chromaloc-bottom=2 / display-window=0 / master-display=G(13250,34500)B(7500,3000)R(34000,16000)WP(15635,16450)L(40000000,50) / max-cll=1655,117 / min-luma=0 / max-luma=1023 / log2-max-poc-lsb=8 / vui-timing-info / vui-hrd-info / slices=1 / no-opt-qp-pps / no-opt-ref-list-length-pps / no-multi-pass-opt-rps / scenecut-bias=0.05 / no-opt-cu-delta-qp / no-aq-motion / hdr / hdr-opt / no-dhdr10-opt / analysis-reuse-level=5 / scale-factor=0 / refine-intra=0 / refine-inter=0 / refine-mv=0 / no-limit-sao / ctu-info=0 / no-lowpass-dct / refine-mv-type=0 / copy-pic=1
Language : English
Default : Yes
Forced : No
Color range : Limited
Color primaries : BT.2020
Transfer characteristics : PQ
Matrix coefficients : BT.2020 non-constant
Mastering display color primaries : R: x=0.680000 y=0.320000, G: x=0.265000 y=0.690000, B: x=0.150000 y=0.060000, White point: x=0.312700 y=0.329000
Mastering display luminance : min: 0.0050 cd/m2, max: 4000.0000 cd/m2
Maximum Content Light Level : 1655 cd/m2
Maximum Frame-Average Light Level : 117 cd/m2

Audio #1
ID : 2
Format : AC-3
Format/Info : Audio Coding 3
Codec ID : A_AC3
Duration : 1 h 57 min
Bit rate mode : Constant
Bit rate : 192 kb/s
Channel(s) : 2 channels
Channel positions : Front: L R
Sampling rate : 48.0 kHz
Frame rate : 31.250 FPS (1536 SPF)
Bit depth : 16 bits
Compression mode : Lossy
Stream size : 161 MiB (1%)
Title : Latino AC3 2.0 192 kbps Bluray 4k
Language : Latin
Service kind : Complete Main
Default : Yes
Forced : No

Audio #2
ID : 3
Format : TrueHD
Format profile : TrueHD Atmos / TrueHD
Codec ID : A_TRUEHD
Duration : 1 h 57 min
Bit rate mode : Variable
Bit rate : 4 336 kb/s
Maximum bit rate : 7 305 kb/s
Channel(s) : Object Based / 8 channels
Channel positions : Object Based / Front: L C R, Side: L R, Back: L R, LFE
Sampling rate : / 48.0 kHz
Frame rate : 1 200.000 FPS (40 SPF)
Compression mode : Lossless
Stream size : 3.56 GiB (11%)
Title : Ingles TrueHD/Atmos 7.1 4336/7305 kbps Bluray 4k
Language : English
Default : No
Forced : No

Audio #3
ID : 4
Format : AC-3
Format/Info : Audio Coding 3
Codec ID : A_AC3
Duration : 1 h 57 min
Bit rate mode : Constant
Bit rate : 448 kb/s
Channel(s) : 6 channels
Channel positions : Front: L C R, Side: L R, LFE
Sampling rate : 48.0 kHz
Frame rate : 31.250 FPS (1536 SPF)
Bit depth : 16 bits
Compression mode : Lossy
Stream size : 377 MiB (1%)
Title : Ingles AC3 5.1 448 kbps Bluray 4k
Language : English
Service kind : Complete Main
Default : No
Forced : No

Text #1
ID : 5
Format : PGS
Muxing mode : zlib
Codec ID : S_HDMV/PGS
Codec ID/Info : Picture based subtitle format used on BDs/HD-DVDs
Duration : 1 h 55 min
Bit rate : 6 420 b/s
Count of elements : 1482
Stream size : 5.30 MiB (0%)
Title : Latino
Language : Latin
Default : No
Forced : No

Text #2
ID : 6
Format : PGS
Muxing mode : zlib
Codec ID : S_HDMV/PGS
Codec ID/Info : Picture based subtitle format used on BDs/HD-DVDs
Duration : 1 h 52 min
Bit rate : 7 554 b/s
Count of elements : 1790
Stream size : 6.10 MiB (0%)
Title : Ingles
Language : English
Default : No
Forced : No



http://i.picasion.com/resize86/9844545824b3026d793bc689d2ca154c.jpg

https://4.bp.blogspot.com/-BfWObv-9FCU/WhlLqa6X_HI/AAAAAAAABMI/UpIxuRxSnv8Xc3sQ-zglKGgMwlTV-UZXgCLcBGAs/s1600/1.png

https://1.bp.blogspot.com/-gkJ-IzetM7U/WhlLqcj2upI/AAAAAAAABME/YzDhAFcKhJYRjTpbwgkdBYZdZbu7-a7wQCLcBGAs/s1600/2.png

https://3.bp.blogspot.com/-xKqzZnTOyrg/WhlLqtiCNHI/AAAAAAAABMM/ZG33Mylwb4cSyRA0-TmEVLLzNIco4HqbgCLcBGAs/s1600/3.png

https://2.bp.blogspot.com/-DwveAvsOA-A/WhlLrJEFjvI/AAAAAAAABMQ/o8jMcXwR_ns3mzZPiGzhKBeXG7pxn5jIQCLcBGAs/s1600/4.png

https://3.bp.blogspot.com/-48zrLzp1exU/WhlLrfJ8s6I/AAAAAAAABMU/BV_rT-R0YUw02lH9xP_xGNVvZFTQ7jUvQCLcBGAs/s1600/5.png

DESCARGA


Links Intercambiables

https://3.bp.blogspot.com/-n3vyYws6udw/WYitgMOaduI/AAAAAAAA1L0/PE1jBg4l_7I2Cp9SjlekwnTQbXZwrQo3wCLcBGAs/s1600/1FICHIER-BANNER.png
**Hidden Content: Check the thread to see hidden data.**

http://2.bp.blogspot.com/-nXtN7MPZ_A8/VZab6hvUJRI/AAAAAAAAsNY/1VAgQ63UKOQ/s1600/MEGA-BANNER.png
**Hidden Content: Check the thread to see hidden data.**

http://3.bp.blogspot.com/-Yh5P3OSnxaQ/UOkNsmy5n6I/AAAAAAAAFG8/J9B4jZodRqM/s1600/UPLOADED_BANNER.png
**Hidden Content: Check the thread to see hidden data.**

https://1.bp.blogspot.com/-PE8m5kK7vYo/WJoNpVnuMnI/AAAAAAAA0go/jTlWOR0KOCEoUUzcNlzAqSRBkzh8nRT4QCLcB/s1600/OPENLOAD.png
**Hidden Content: Check the thread to see hidden data.**

https://4.bp.blogspot.com/-qqShfCTogHE/WaxnWvr1vHI/AAAAAAAAAL0/aTU3k5gHeNYqWMWsFEdXHF722AwHK0bewCLcBGAs/s1600/contrase%25C3%25B1a%2Bclub%2Bhd.jpg




www.club-hd.com

juancholi
25/11/2017, 21:20
un clásico!!!muchas gracias!!!

consuelobarturen
25/11/2017, 21:22
graciassssssssss

xl5
25/11/2017, 21:22
Tb_up3:apls:

SAAEDVI
25/11/2017, 21:26
me gusta

algaba
25/11/2017, 22:47
gracias por el aporte

joelmax18
25/11/2017, 23:09
gracias

ERRE
25/11/2017, 23:35
Gracias...thank_you2

frmr
26/11/2017, 02:12
gracias

JCAvila
26/11/2017, 03:15
gracias!

leuco88
26/11/2017, 03:36
gracias

cpola
26/11/2017, 07:00
Gracias

strider_01
26/11/2017, 08:25
Desc_g_

Josiba
26/11/2017, 08:30
Desc_g_

flujo
26/11/2017, 13:10
gracias

samuelabad
26/11/2017, 22:48
Gracias

tsubasa100
26/11/2017, 23:17
graciassssssssss

CinefiloCool
27/11/2017, 01:21
Ohh si!! se supone que la veria antes de la de este año :P
gracias por recordarme jeje

0irukalive
27/11/2017, 04:40
Desc_g_:pulgar1:

coyote81
27/11/2017, 05:25
muchisimass graicas!!

juniorgarabo
27/11/2017, 08:43
Desc_g_

j-galicia-h
27/11/2017, 08:50
gracias amigo bajando buepa elicula

cripp
27/11/2017, 10:53
Gracias por compartir

orostico
27/11/2017, 15:50
Saludos :)

hfanjul
28/11/2017, 00:39
Muchísimas gracias

kakaroto100
28/11/2017, 22:40
Desc_g_

Genji
29/11/2017, 10:41
¡¡¡Excelente aporte, Mil Gracias!!! :dplgar:
Desc_g_

maxnova
02/12/2017, 11:33
muchas gracias

alejandrodg82@gmail.com
02/12/2017, 12:01
TERRIBLE APORTE VIEJO!!! Mil gracias!

parellanocl
03/12/2017, 11:32
Grande maestro por subir un clásico de clásicos y en la mejor calidad. Muchas gracias.

kill_b911
04/12/2017, 05:41
Desc_g_

patoch
04/12/2017, 10:21
Desc_g_

PATRICIOG
04/12/2017, 21:51
Desc_g_

malabaresdepayaso
07/12/2017, 12:16
Desc_g_

fewac
08/12/2017, 00:07
Gracias!!!

Ronick
08/12/2017, 12:01
http://www.club-hd.com/images/smilies/DESCARGANDO.png

lordw21
09/12/2017, 19:25
Desc_g_

davidmh7
12/12/2017, 12:34
la esperaba muchas gracias

argentum
24/12/2017, 14:02
gracias

gen2000
25/12/2017, 08:24
thanks for sharing

jcvallenato
27/12/2017, 20:09
Excelente pelicula

fresco
28/12/2017, 03:24
Desc_g_

ejsame
04/01/2018, 15:44
Desc_g_

pepititoma
18/01/2018, 17:44
Gracias

troyano2010
21/01/2018, 18:34
Desc_g_

carcomer
27/01/2018, 20:56
gracias

carcomer
29/01/2018, 14:22
gracias

RalphVader
03/02/2018, 17:32
mil gracias

vhrod
06/02/2018, 22:06
Desc_g_

tinchom
10/02/2018, 00:06
gracias muy buena

amendoza
03/03/2018, 09:49
graciaasss

Edu_Alvarado
23/03/2018, 00:11
gracias

Sirotauro
06/05/2018, 19:47
Muy buena, la estaba buscando. Gracias!

portu978
16/05/2018, 00:42
gracias

fernando4555
18/05/2018, 11:17
Desc_g_