PDA

Ver la versión completa : Spiderman: Homecoming (2017) EUR 2160p 4k UHD HDR Dual Latino-Inglés [Subt. Esp] (Fantástico. Acción)



Brady
19/11/2017, 04:23
https://1.bp.blogspot.com/-JSbqcMIZvQA/WhEla5GSG0I/AAAAAAAABFI/08lfpJqCnIQDXJzIZ82qJmZUu3196PvZACLcBGAs/s1600/man.jpg


https://1.bp.blogspot.com/-s6PuW6TawPg/WaxnWg-5pPI/AAAAAAAAALs/OMh7vMt1tkAKRT8kSue_zxgG64KJ0Ss1ACLcBGAs/s1600/ficha%2Btecnica%2Bclub.jpg



Título Original: Spider-Man: Homecoming
Año: 2017
Duración: 133 min.
País: https://www.filmaffinity.com/imgs/countries/US.jpg United States
Director: Jon Watts
Guion: John Francis Daley, Jonathan M. Goldstein, Christopher D. Ford, Chris McKenna, Jon Watts, Erik Sommers (Personajes: Steve Ditko, Stan Lee)
Productora: Columbia Pictures / Marvel Studios / Pascal Pictures
Género: Fantástico. Acción. Comedia. Ciencia ficción | Superhéroes. Cómic. Marvel Comics. Adolescencia. 3-D


SINOPSIS
Peter Parker (Tom Holland) comienza a experimentar su recién descubierta identidad como el superhéroe Spider-Man. Después de la experiencia vivida con los Vengadores, Peter regresa a casa, donde vive con su tía (Marisa Tomei). Bajo la atenta mirada de su mentor Tony Stark (Robert Downey Jr.), Peter intenta mantener una vida normal como cualquier joven de su edad, pero interrumpe en su rutina diaria el nuevo villano Vulture (Michael Keaton) y, con él, lo más importante de la vida de Peter comenzará a verse amenazado.

TRAILER

https://www.youtube.com/watch?v=4qY6qOtziRI

Datos Técnicos
Video:
MPEGH HEVC / 2160p / High Profile 5.1 / 14.4 mbps

Audio:
Español Latino / AC3 5.1/ 640 kbps / 48kHz / Bluray 4k
Inglés / TrueHD/Atmos 7.1 / 4945/8175 kbps / 48kHz / Bluray 4k
Inglés / AC3 5.1 / 640 kbps / 48kHz / Bluray 4k

Subs:
Español Latino / SubRip / Bluray 4k
Español Latino Forzados / SubRip / Bluray 4k
Español Latino / Sup / Bluray 4k
Inglés / Sup / Bluray 4k


General
Unique ID : 245013525679631748593332824087182514938 (0xB853E37A8B5EC422B72964861A591AFA)
Format : Matroska
Format version : Version 4 / Version 2
File size : 19.7 GiB
Duration : 2 h 13 min
Overall bit rate mode : Variable
Overall bit rate : 21.2 Mb/s
Encoded date : UTC 2017-11-19 04:19:42
Writing application : mkvmerge v9.9.0 ('Pick Up') 64bit
Writing library : libebml v1.3.4 + libmatroska v1.4.5
Uploader : Brady
Web : www.club-hd.com

Video
ID : 1
Format : HEVC
Format/Info : High Efficiency Video Coding
Format profile : Main 10@L5.1@High
Codec ID : V_MPEGH/ISO/HEVC
Duration : 2 h 13 min
Bit rate : 14.8 Mb/s
Width : 3 840 pixels
Height : 1 604 pixels
Display aspect ratio : 2.40:1
Frame rate mode : Constant
Frame rate : 23.976 (24000/1001) FPS
Color space : YUV
Chroma subsampling : 4:2:0 (Type 2)
Bit depth : 10 bits
Bits/(Pixel*Frame) : 0.100
Stream size : 13.8 GiB (70%)
Writing library : x265 2.5+38-8a121d8cc134:[Windows][GCC 6.2.1][64 bit] 10bit
Encoding settings : cpuid=1173503 / frame-threads=4 / numa-pools=16 / wpp / no-pmode / no-pme / no-psnr / no-ssim / log-level=2 / input-csp=1 / input-res=3840x1604 / interlace=0 / total-frames=192001 / level-idc=51 / high-tier=1 / uhd-bd=0 / ref=4 / no-allow-non-conformance / repeat-headers / annexb / aud / hrd / info / hash=0 / no-temporal-layers / no-open-gop / min-keyint=1 / keyint=24 / bframes=4 / b-adapt=2 / b-pyramid / bframe-bias=0 / rc-lookahead=25 / lookahead-slices=4 / scenecut=40 / no-intra-refresh / ctu=64 / min-cu-size=8 / rect / no-amp / max-tu-size=32 / tu-inter-depth=1 / tu-intra-depth=1 / limit-tu=0 / rdoq-level=2 / dynamic-rd=0.00 / no-ssim-rd / signhide / no-tskip / nr-intra=0 / nr-inter=0 / no-constrained-intra / no-strong-intra-smoothing / max-merge=3 / limit-refs=3 / limit-modes / me=3 / subme=3 / merange=57 / temporal-mvp / weightp / no-weightb / no-analyze-src-pics / deblock=-3:-3 / no-sao / no-sao-non-deblock / rd=4 / no-early-skip / rskip / no-fast-intra / no-tskip-fast / no-cu-lossless / no-b-intra / no-splitrd-skip / rdpenalty=0 / psy-rd=2.00 / psy-rdoq=1.00 / no-rd-refine / analysis-reuse-mode=0 / no-lossless / cbqpoffs=0 / crqpoffs=0 / rc=crf / crf=17.0 / qcomp=0.60 / qpstep=4 / stats-write=0 / stats-read=0 / vbv-maxrate=160000 / vbv-bufsize=160000 / vbv-init=0.9 / crf-max=0.0 / crf-min=0.0 / ipratio=1.40 / pbratio=1.30 / aq-mode=1 / aq-strength=1.00 / cutree / zone-count=0 / no-strict-cbr / qg-size=32 / no-rc-grain / qpmax=69 / qpmin=0 / no-const-vbv / sar=1 / overscan=0 / videoformat=5 / range=0 / colorprim=9 / transfer=16 / colormatrix=9 / chromaloc=1 / chromaloc-top=2 / chromaloc-bottom=2 / display-window=0 / master-display=G(13250,34500)B(7500,3000)R(34000,16000)WP(15635,16450)L(40000000,50) / max-cll=4332,992 / min-luma=0 / max-luma=1023 / log2-max-poc-lsb=8 / vui-timing-info / vui-hrd-info / slices=1 / opt-qp-pps / opt-ref-list-length-pps / no-multi-pass-opt-rps / scenecut-bias=0.05 / no-opt-cu-delta-qp / no-aq-motion / hdr / hdr-opt / no-dhdr10-opt / analysis-reuse-level=5 / scale-factor=0 / refine-intra=0 / refine-inter=0 / refine-mv=0 / no-limit-sao / ctu-info=0 / no-lowpass-dct
Language : English
Default : Yes
Forced : No
Color range : Limited
Color primaries : BT.2020
Transfer characteristics : PQ
Matrix coefficients : BT.2020 non-constant
Mastering display color primaries : R: x=0.680000 y=0.320000, G: x=0.265000 y=0.690000, B: x=0.150000 y=0.060000, White point: x=0.312700 y=0.329000
Mastering display luminance : min: 0.0050 cd/m2, max: 4000.0000 cd/m2
Maximum Content Light Level : 4332 cd/m2
Maximum Frame-Average Light Level : 992 cd/m2

Audio #1
ID : 2
Format : AC-3
Format/Info : Audio Coding 3
Codec ID : A_AC3
Duration : 2 h 13 min
Bit rate mode : Constant
Bit rate : 640 kb/s
Channel(s) : 6 channels
Channel positions : Front: L C R, Side: L R, LFE
Sampling rate : 48.0 kHz
Frame rate : 31.250 FPS (1536 SPF)
Bit depth : 16 bits
Compression mode : Lossy
Stream size : 611 MiB (3%)
Title : Latino AC3 5.1 640 kbps Bluray 4k
Language : Latin
Service kind : Complete Main
Default : Yes
Forced : No

Audio #2
ID : 3
Format : TrueHD
Format profile : TrueHD+Atmos / TrueHD
Codec ID : A_TRUEHD
Duration : 2 h 13 min
Bit rate mode : Variable
Bit rate : 4 945 kb/s
Maximum bit rate : 8 175 kb/s
Channel(s) : Object Based / 8 channels
Channel positions : Object Based / Front: L C R, Side: L R, Back: L R, LFE
Sampling rate : / 48.0 kHz
Frame rate : 1 200.000 FPS (40 SPF)
Compression mode : Lossless
Stream size : 4.61 GiB (23%)
Title : Ingles TrueHD/Atmos 7.1 4945/8175 kbps Bluray 4k
Language : English
Default : No
Forced : No

Audio #3
ID : 4
Format : AC-3
Format/Info : Audio Coding 3
Codec ID : A_AC3
Duration : 2 h 13 min
Bit rate mode : Constant
Bit rate : 640 kb/s
Channel(s) : 6 channels
Channel positions : Front: L C R, Side: L R, LFE
Sampling rate : 48.0 kHz
Frame rate : 31.250 FPS (1536 SPF)
Bit depth : 16 bits
Compression mode : Lossy
Stream size : 611 MiB (3%)
Title : Ingles AC3 5.1 640 kbps Bluray 4k
Language : English
Service kind : Complete Main
Default : No
Forced : No

Text #1
ID : 5
Format : UTF-8
Codec ID : S_TEXT/UTF8
Codec ID/Info : UTF-8 Plain Text
Duration : 2 h 12 min
Bit rate : 57 b/s
Count of elements : 1675
Stream size : 55.5 KiB (0%)
Title : Latino
Language : Latin
Default : No
Forced : No

Text #2
ID : 6
Format : UTF-8
Codec ID : S_TEXT/UTF8
Codec ID/Info : UTF-8 Plain Text
Duration : 2 h 9 min
Bit rate : 0 b/s
Count of elements : 13
Stream size : 419 Bytes (0%)
Title : Forzados
Language : Latin
Default : Yes
Forced : No

Text #3
ID : 7
Format : PGS
Muxing mode : zlib
Codec ID : S_HDMV/PGS
Codec ID/Info : Picture based subtitle format used on BDs/HD-DVDs
Duration : 2 h 12 min
Bit rate : 18.5 kb/s
Count of elements : 3355
Stream size : 17.6 MiB (0%)
Title : Latino
Language : Latin
Default : No
Forced : No

Text #4
ID : 8
Format : PGS
Muxing mode : zlib
Codec ID : S_HDMV/PGS
Codec ID/Info : Picture based subtitle format used on BDs/HD-DVDs
Duration : 2 h 12 min
Bit rate : 20.1 kb/s
Count of elements : 3555
Stream size : 19.0 MiB (0%)
Title : Ingles
Language : English
Default : No
Forced : No



http://i.picasion.com/resize86/9844545824b3026d793bc689d2ca154c.jpg

https://1.bp.blogspot.com/-UZgGYCAidLk/WhEn8PyLRRI/AAAAAAAABFY/LxwrINALcywlZLZ-3nr0qyxCd9peOVrhQCLcBGAs/s1600/1.png

https://3.bp.blogspot.com/-ETKQM_62b6U/WhEn8LvzbmI/AAAAAAAABFc/ZrV0pb3_htg9t5skXbAW_RK7jAx3RRL-gCLcBGAs/s1600/2.png

https://4.bp.blogspot.com/-zZ_k-GecDMA/WhEn8AB4l0I/AAAAAAAABFU/npllJ4Jv4aUIqD2j1AxsdqGPpnmko8X_gCLcBGAs/s1600/3.png

https://2.bp.blogspot.com/-4RBNHQeLCYw/WhEn9Cc8paI/AAAAAAAABFg/hS8-5mWzxWE4f1ZTQZkIVA8MUpFkQEatQCLcBGAs/s1600/4.png

https://4.bp.blogspot.com/-RHJnqHgnK5s/WhEn9vw5hyI/AAAAAAAABFk/IlZoiaSxrkk8qIfdamICx1ypcTJxlGHJACLcBGAs/s1600/5.png

DESCARGA


Links Intercambiables

https://3.bp.blogspot.com/-n3vyYws6udw/WYitgMOaduI/AAAAAAAA1L0/PE1jBg4l_7I2Cp9SjlekwnTQbXZwrQo3wCLcBGAs/s1600/1FICHIER-BANNER.png
**Hidden Content: Check the thread to see hidden data.**

http://2.bp.blogspot.com/-nXtN7MPZ_A8/VZab6hvUJRI/AAAAAAAAsNY/1VAgQ63UKOQ/s1600/MEGA-BANNER.png
**Hidden Content: Check the thread to see hidden data.**

http://3.bp.blogspot.com/-Yh5P3OSnxaQ/UOkNsmy5n6I/AAAAAAAAFG8/J9B4jZodRqM/s1600/UPLOADED_BANNER.png
**Hidden Content: Check the thread to see hidden data.**

https://1.bp.blogspot.com/-PE8m5kK7vYo/WJoNpVnuMnI/AAAAAAAA0go/jTlWOR0KOCEoUUzcNlzAqSRBkzh8nRT4QCLcB/s1600/OPENLOAD.png
**Hidden Content: Check the thread to see hidden data.**

https://4.bp.blogspot.com/-qqShfCTogHE/WaxnWvr1vHI/AAAAAAAAAL0/aTU3k5gHeNYqWMWsFEdXHF722AwHK0bewCLcBGAs/s1600/contrase%25C3%25B1a%2Bclub%2Bhd.jpg




www.club-hd.com

Josiba
19/11/2017, 06:38
Desc_g_

cpola
19/11/2017, 08:22
Gracias

crischapman
19/11/2017, 09:35
Gracias!

xl5
19/11/2017, 10:36
:apls::pulgar2:

parellanocl
19/11/2017, 10:44
Muchas gracias.

MasterMovies
19/11/2017, 11:15
No es por criticar pero como que se ve opaco la imagen.

Jamesgoz
19/11/2017, 11:45
gracias

neto6911
19/11/2017, 12:28
Gracias, Desvargando.

Vizard
19/11/2017, 12:40
No es por criticar pero como que se ve opaco la imagen.

Es por que la película está en 4K HDR y la captura se hizo desde un reproductor de pc que no puede reproducir HDR, si tienes una TV 4K HDR se verá muy bien.

virnesto
19/11/2017, 13:49
gracias!!

Lena
19/11/2017, 14:09
y que reproductor de PC puedo usar para verla que "emule" el HDR si el monitor no es HDR

flujo
19/11/2017, 15:03
gracias

mario e
19/11/2017, 15:32
siiiiiiiiiiiiiiiiiiiiiiii:dplgar:Desc_g_

jmst1011
19/11/2017, 17:32
gracias

Uziel
19/11/2017, 18:32
y que reproductor de PC puedo usar para verla que "emule" el HDR si el monitor no es HDR

con VLC Media Player , Km Player, hay muchos que se pueden usar para reproducir este tipo de películas

SAAEDVI
19/11/2017, 21:07
ME GUSTA

juniorgarabo
19/11/2017, 23:37
Desc_g_

Lena
20/11/2017, 00:28
ver se pueden ver con la mayoría
pero VLC la imagen la hace de color gris como se muestra en las capturas
el KM player no lo he probado
pero VLC splash pro powerDVD (sin hDR monitor) la hacen gris, dvd fab media player apenas le agrega algo de color

Brady
20/11/2017, 00:43
ver se pueden ver con la mayoría
pero VLC la imagen la hace de color gris como se muestra en las capturas
el KM player no lo he probado
pero VLC splash pro powerDVD (sin hDR monitor) la hacen gris, dvd fab media player apenas le agrega algo de color

si no reproduce tu monitor de pc el hdr o no sporta el 4k pues no puedes ver bien las 4k, si hay 4k sin hdr, si las liberan tambien, pero aqui se supe puro 4k con hdr, sin hdr son demasiado pesadas, yo mejor subo las hdr, es mejor verlas en una tv 4k, pero da lo mismo si la tv no tiene hdr, y si tiene hdr tienes que activarlo lo mismo pasa con una pc sino tiene hdr no puedes reproducir y que se vea exelente, y si tu monitos no soporta un 4k pues menos, te puedes bajar los releases que no tienen hdr, pero tendras que buscarlos por tu propia cuenta

feramil
20/11/2017, 02:13
Genial Gracias¡¡

gibrannr1
20/11/2017, 02:40
Desc_g_

JCAvila
20/11/2017, 09:52
gracias!

potencia01
20/11/2017, 10:23
muy bonita se ve

afiff
20/11/2017, 10:48
Desc_g_

virus619
20/11/2017, 21:33
Desc_g_

ValentinPbo
20/11/2017, 22:06
Buenisimo, gracias por los aportes en 4k son geniales.

Tony Stark
20/11/2017, 22:18
Desc_g_

cripp
21/11/2017, 11:51
Gracias por compartir

leyton
21/11/2017, 18:47
Desc_g_

muruagam
21/11/2017, 20:06
Desc_g_

eabadia
21/11/2017, 23:30
excelente

spiderman16962
21/11/2017, 23:51
gracias por el aporte saludos

Particulas
22/11/2017, 15:58
Hola...

Buen aporte...

Desc_g_

Gracias...

Saludos.

stelgerw
22/11/2017, 19:17
descargandooo

samuelabad
22/11/2017, 19:45
Gracias

chavy_x12
23/11/2017, 14:51
bien!!!!!

tsubasa100
23/11/2017, 23:49
Gracias

rcruanes
24/11/2017, 05:03
descargando

aguscapo
25/11/2017, 18:36
:pulgar2:

alesgdl
27/11/2017, 23:34
muchas gracias

fewac
28/11/2017, 01:21
Gracias!!!

nakar2000
30/11/2017, 16:04
Muchisimas gracias, sois os mejores

PANCHOJAM
30/11/2017, 22:36
Desc_g_

dinu1979
04/12/2017, 20:28
muchas gracias

Frank
07/12/2017, 02:39
gracias

Sunstraker
08/12/2017, 14:38
Desc_g_

el guicho
11/12/2017, 00:49
gracias

sjredo
13/12/2017, 12:48
gracias por el aporte!

childforever
14/12/2017, 09:57
graciasss

iori_2700
14/12/2017, 19:54
Desc_g_:pulgar2:

rcovacon
15/12/2017, 02:17
muchas gracias

mx777
21/12/2017, 09:55
Desc_g_

droonsdragons
22/12/2017, 18:27
hola descargando gracias

RESIDENT_EVIL
26/12/2017, 01:47
Desc_g_Desc_g_:apls:

fresco
27/12/2017, 04:51
Desc_g_

Juan25
27/12/2017, 15:15
Muy buenas las pelis!

jcvallenato
28/12/2017, 17:49
Buen aporte...gracias

montesandrew
29/12/2017, 14:11
descargando

reneelias
31/12/2017, 12:01
muchas gracias

juancholi
06/01/2018, 14:07
http://www.club-hd.com/images/smilies/DESCARGANDO.png

checho68
14/01/2018, 14:47
Gracias..

frankarter
14/01/2018, 21:21
Desc_g_

davisariel
16/01/2018, 00:29
Desc_g_Desc_g_Desc_g_Desc_g_Desc_g_Desc_g_

xikoh99
22/01/2018, 22:12
Desc_g_

Eduar-64
06/02/2018, 23:20
Holaaaaaaaaaaaaaaaaaaaaaa

cel6191
09/02/2018, 04:00
gracias

alejavega
19/02/2018, 20:18
Muchas gracias

msr.1899
22/02/2018, 10:15
Gracias

lion2808
04/03/2018, 22:29
2guns gracias

EmanuelA87
15/03/2018, 23:14
gracias!!!

diego393
18/03/2018, 23:17
Gracias!

Edu_Alvarado
22/03/2018, 22:49
gracias

spamthiss
02/04/2018, 22:35
gracias

joelmax18
09/04/2018, 21:15
gracias

josias_92
12/04/2018, 21:11
Gracias

silnarvaez
11/05/2018, 14:11
gracias

NitroJ
18/05/2018, 17:53
gracias por el aporte

pippin51
03/06/2018, 00:31
muchas gracias

fuenric
21/06/2018, 01:10
Gracias!

ecuavideos
22/06/2018, 07:28
gracias

laspipi
01/07/2018, 20:46
:pulgar1:

gabrielx5
10/07/2018, 07:20
gracias

hombrelobo
10/07/2018, 16:17
gracias

mikekrooz
12/07/2018, 20:37
Muchas gracias!
Desc_g_

Prem1er
18/08/2018, 04:44
gracias por el aporte!!

alivanez
15/09/2018, 07:10
buen aporte

jsotol13
16/09/2018, 01:59
descargando

x3ro
18/10/2018, 22:12
muchas gracias

hdxtreme
21/10/2018, 01:19
gracias