PDA

Ver la versión completa : Power Rangers (2017) 2160p 4k UHD HDR Dual Latino-Inglés [Subt. Esp] (Ciencia Ficción. Acción)



Brady
18/10/2017, 20:14
https://2.bp.blogspot.com/-5RjJPGLYkac/WefJAL-xe7I/AAAAAAAAAx4/qNCV8yzypgsmAY_FEbrRvxchImY8ZihFwCLcBGAs/s1600/power.jpg


https://1.bp.blogspot.com/-s6PuW6TawPg/WaxnWg-5pPI/AAAAAAAAALs/OMh7vMt1tkAKRT8kSue_zxgG64KJ0Ss1ACLcBGAs/s1600/ficha%2Btecnica%2Bclub.jpg



Título original: Power Rangers
Año: 2017
Duración: 123 min.
País: https://www.filmaffinity.com/imgs/countries/US.jpg United State
Director: Dean Israelite
Guion: John Gatins
Productora: Lionsgate / Saban Entertainment
Género: Ciencia ficción. Acción | Superhéroes. Robots


SINOPSIS
La película sigue a cinco jóvenes predestinados a convertirse en algo extraordinario cuando descubren que tanto su modesto poblado, Angel Grove, como el resto del mundo, están al borde de la aniquilación por una amenaza alienígena. Nuestros héroes descubren rápidamente que son los únicos que pueden salvar al planeta, pero para lograrlo tendrán que superar problemas de la vida real y unirse bajo el nombre de Power Rangers antes de que sea demasiado tarde.

TRAILER

https://www.youtube.com/watch?v=dRTZcf41t8Q

Datos Técnicos
Video:
MPEGH HEVC / 2160p / High Profile 5.1 / 13800 kbps

Audio:
Español Latino / AC3 5.1/ 640 kbps / 48kHz / Bluray 4k
Inglés / Atmos/TrueHD 7.1 / 4893/8565 kbps / 48kHz / Bluray 4k
Inglés / AC3 5.1/ 640 kbps / 48kHz / Bluray 4k

Subs:
Español Latino / SubRip / Bluray 4k
Español Latino / Sup / Bluray 4k
Inglés / Sup / Bluray 4k


General
Unique ID : 286096884905766457940910049261007691412 (0xD73C4179B908F4C0166921BD27485E94)
Format : Matroska
Format version : Version 4 / Version 2
File size : 17.4 GiB
Duration : 2 h 3 min
Overall bit rate mode : Variable
Overall bit rate : 20.1 Mb/s
Encoded date : UTC 2018-07-21 06:10:22
Writing application : mkvmerge v20.0.0 ('I Am The Sun') 64-bit
Writing library : libebml v1.3.5 + libmatroska v1.4.8
Uploader : Brady
Web : www.club-hd.com

Video
ID : 1
Format : HEVC
Format/Info : High Efficiency Video Coding
Format profile : Main 10@L5.1@High
Codec ID : V_MPEGH/ISO/HEVC
Duration : 2 h 3 min
Bit rate : 13.8 Mb/s
Width : 3 840 pixels
Height : 1 600 pixels
Display aspect ratio : 2.40:1
Frame rate mode : Constant
Frame rate : 23.976 (24000/1001) FPS
Color space : YUV
Chroma subsampling : 4:2:0 (Type 2)
Bit depth : 10 bits
Bits/(Pixel*Frame) : 0.094
Stream size : 11.9 GiB (69%)
Writing library : x265 2.5+27-0e168bdeb48b:[Windows][GCC 6.2.1][64 bit] 10bit
Encoding settings : cpuid=1173503 / frame-threads=4 / numa-pools=20 / wpp / no-pmode / no-pme / no-psnr / no-ssim / log-level=2 / input-csp=1 / input-res=3840x1600 / interlace=0 / total-frames=178364 / level-idc=51 / high-tier=1 / uhd-bd=0 / ref=4 / no-allow-non-conformance / repeat-headers / annexb / aud / hrd / info / hash=0 / no-temporal-layers / no-open-gop / min-keyint=1 / keyint=24 / bframes=4 / b-adapt=2 / b-pyramid / bframe-bias=0 / rc-lookahead=25 / lookahead-slices=4 / scenecut=40 / no-intra-refresh / ctu=64 / min-cu-size=8 / rect / no-amp / max-tu-size=32 / tu-inter-depth=1 / tu-intra-depth=1 / limit-tu=0 / rdoq-level=2 / dynamic-rd=0.00 / no-ssim-rd / signhide / no-tskip / nr-intra=0 / nr-inter=0 / no-constrained-intra / no-strong-intra-smoothing / max-merge=3 / limit-refs=3 / limit-modes / me=3 / subme=3 / merange=57 / temporal-mvp / weightp / no-weightb / no-analyze-src-pics / deblock=-3:-3 / no-sao / no-sao-non-deblock / rd=4 / no-early-skip / rskip / no-fast-intra / no-tskip-fast / no-cu-lossless / no-b-intra / no-splitrd-skip / rdpenalty=0 / psy-rd=2.00 / psy-rdoq=1.00 / no-rd-refine / analysis-reuse-mode=0 / no-lossless / cbqpoffs=0 / crqpoffs=0 / rc=crf / crf=17.0 / qcomp=0.60 / qpstep=4 / stats-write=0 / stats-read=0 / vbv-maxrate=160000 / vbv-bufsize=160000 / vbv-init=0.9 / crf-max=0.0 / crf-min=0.0 / ipratio=1.40 / pbratio=1.30 / aq-mode=1 / aq-strength=1.00 / cutree / zone-count=0 / no-strict-cbr / qg-size=32 / no-rc-grain / qpmax=69 / qpmin=0 / no-const-vbv / sar=1 / overscan=0 / videoformat=5 / range=0 / colorprim=9 / transfer=16 / colormatrix=9 / chromaloc=1 / chromaloc-top=2 / chromaloc-bottom=2 / display-window=0 / master-display=G(13250,34500)B(7500,3000)R(34000,16000)WP(15635,16450)L(40000000,50) / max-cll=1000,657 / min-luma=0 / max-luma=1023 / log2-max-poc-lsb=8 / vui-timing-info / vui-hrd-info / slices=1 / opt-qp-pps / opt-ref-list-length-pps / no-multi-pass-opt-rps / scenecut-bias=0.05 / no-opt-cu-delta-qp / no-aq-motion / hdr / hdr-opt / no-dhdr10-opt / analysis-reuse-level=5 / scale-factor=0 / refine-intra=0 / refine-inter=0 / refine-mv=0 / no-limit-sao / ctu-info=0
Language : English
Default : Yes
Forced : No
Color range : Limited
Color primaries : BT.2020
Transfer characteristics : PQ
Matrix coefficients : BT.2020 non-constant
Mastering display color primaries : Display P3
Mastering display luminance : min: 0.0050 cd/m2, max: 4000 cd/m2
Maximum Content Light Level : 1000 cd/m2
Maximum Frame-Average Light Level : 657 cd/m2

Audio #1
ID : 2
Format : AC-3
Format/Info : Audio Coding 3
Codec ID : A_AC3
Duration : 2 h 3 min
Bit rate mode : Constant
Bit rate : 640 kb/s
Channel(s) : 6 channels
Channel positions : Front: L C R, Side: L R, LFE
Sampling rate : 48.0 kHz
Frame rate : 31.250 FPS (1536 SPF)
Bit depth : 16 bits
Compression mode : Lossy
Stream size : 568 MiB (3%)
Title : Latino AC3 5.1 640 kbps Bluray 4k
Language : Latin
Service kind : Complete Main
Default : Yes
Forced : No

Audio #2
ID : 3
Format : TrueHD
Format profile : TrueHD+Atmos / TrueHD
Codec ID : A_TRUEHD
Duration : 2 h 3 min
Bit rate mode : Variable
Bit rate : 4 893 kb/s
Maximum bit rate : 8 565 kb/s
Channel(s) : Object Based / 8 channels
Channel positions : Object Based / Front: L C R, Side: L R, Back: L R, LFE
Sampling rate : / 48.0 kHz
Frame rate : 1 200.000 FPS (40 SPF)
Compression mode : Lossless
Stream size : 4.24 GiB (24%)
Title : Ingles Atmos/TrueHD 7.1 4893/8565 kbps Bluray 4k
Language : English
Default : No
Forced : No

Audio #3
ID : 4
Format : AC-3
Format/Info : Audio Coding 3
Codec ID : A_AC3
Duration : 2 h 3 min
Bit rate mode : Constant
Bit rate : 640 kb/s
Channel(s) : 6 channels
Channel positions : Front: L C R, Side: L R, LFE
Sampling rate : 48.0 kHz
Frame rate : 31.250 FPS (1536 SPF)
Bit depth : 16 bits
Compression mode : Lossy
Stream size : 568 MiB (3%)
Title : Ingles AC3 5.1 640 kbps Bluray 4k
Language : English
Service kind : Complete Main
Default : No
Forced : No

Text #1
ID : 5
Format : UTF-8
Codec ID : S_TEXT/UTF8
Codec ID/Info : UTF-8 Plain Text
Duration : 1 h 55 min
Bit rate : 53 b/s
Count of elements : 1580
Stream size : 45.1 KiB (0%)
Title : Latino
Language : Latin
Default : No
Forced : No

Text #2
ID : 6
Format : PGS
Muxing mode : zlib
Codec ID : S_HDMV/PGS
Codec ID/Info : Picture based subtitle format used on BDs/HD-DVDs
Duration : 1 h 55 min
Bit rate : 32.3 kb/s
Count of elements : 3192
Stream size : 26.6 MiB (0%)
Title : Latino
Language : Latin
Default : No
Forced : No

Text #3
ID : 7
Format : PGS
Muxing mode : zlib
Codec ID : S_HDMV/PGS
Codec ID/Info : Picture based subtitle format used on BDs/HD-DVDs
Duration : 1 h 55 min
Bit rate : 41.8 kb/s
Count of elements : 3780
Stream size : 34.4 MiB (0%)
Title : Ingles
Language : English
Default : No
Forced : No



http://i.picasion.com/resize86/9844545824b3026d793bc689d2ca154c.jpg

https://3.bp.blogspot.com/-4a7dqRw79Hw/WefYpAOlGBI/AAAAAAAAAyI/6SbvAUTmjwYSI2i8NYqd0M2PIWhiq_q2QCLcBGAs/s1600/1.png

https://1.bp.blogspot.com/-pNLutRAlWMk/WefYpM2BDwI/AAAAAAAAAyM/XisCB07Gefw5GBr6yj3faFw1MhWk2kjtQCLcBGAs/s1600/2.png

https://2.bp.blogspot.com/-PTrpo7akYcA/WefYpB2LbWI/AAAAAAAAAyQ/0kBDVj-dxdMyi32EqWlCFqiyU4CqAYTggCLcBGAs/s1600/3.png

https://2.bp.blogspot.com/-DgWu8kh-mDE/WefYp0bgBMI/AAAAAAAAAyU/52Ey2cJTDB0cnuSeSj64P-73kXoO8n_yQCLcBGAs/s1600/4.png

https://4.bp.blogspot.com/-W4YJ9yaXmo0/WefYqEqS0XI/AAAAAAAAAyY/HZOsVrD7RGED5bbapL3ZF0xxp2iQbdaygCLcBGAs/s1600/5.png

DESCARGA


Links Intercambiables

https://3.bp.blogspot.com/-n3vyYws6udw/WYitgMOaduI/AAAAAAAA1L0/PE1jBg4l_7I2Cp9SjlekwnTQbXZwrQo3wCLcBGAs/s1600/1FICHIER-BANNER.png
**Hidden Content: Check the thread to see hidden data.**

http://2.bp.blogspot.com/-nXtN7MPZ_A8/VZab6hvUJRI/AAAAAAAAsNY/1VAgQ63UKOQ/s1600/MEGA-BANNER.png
**Hidden Content: Check the thread to see hidden data.**

http://3.bp.blogspot.com/-Yh5P3OSnxaQ/UOkNsmy5n6I/AAAAAAAAFG8/J9B4jZodRqM/s1600/UPLOADED_BANNER.png
**Hidden Content: Check the thread to see hidden data.**

https://1.bp.blogspot.com/-PE8m5kK7vYo/WJoNpVnuMnI/AAAAAAAA0go/jTlWOR0KOCEoUUzcNlzAqSRBkzh8nRT4QCLcB/s1600/OPENLOAD.png
**Hidden Content: Check the thread to see hidden data.**

https://4.bp.blogspot.com/-qqShfCTogHE/WaxnWvr1vHI/AAAAAAAAAL0/aTU3k5gHeNYqWMWsFEdXHF722AwHK0bewCLcBGAs/s1600/contrase%25C3%25B1a%2Bclub%2Bhd.jpg




www.club-hd.com

Josiba
18/10/2017, 20:17
Desc_g_

strider_01
18/10/2017, 20:27
Desc_g_

leuco88
18/10/2017, 20:46
gracias

bielo
18/10/2017, 21:07
Desc_g_

el bodoke
18/10/2017, 21:10
Aun no me descargo una de estas pero me gustaria saber a los que la hayan reproducido si al hacerlo el televisor cambia los parametros de la imagen o sea backlight se setea a 20 y asi sucesivamente debido al HDR

cpola
18/10/2017, 21:23
Gracias

Brady
18/10/2017, 21:31
Aun no me descargo una de estas pero me gustaria saber a los que la hayan reproducido si al hacerlo el televisor cambia los parametros de la imagen o sea backlight se setea a 20 y asi sucesivamente debido al HDR

ah que te refieres disculpa?

JCAvila
18/10/2017, 21:49
gracias!

scorpionrd
18/10/2017, 23:10
gracias.....

KmL63
19/10/2017, 07:09
Gracias.................................

el bodoke
19/10/2017, 08:36
Ok me refiero por ejemplo mi televisor es un samsung 4k HDR y cuando algun contenodo HDR se reproduce sea traves de un reproductor 4k o Amazon o Netflix hay opciones que se calibran por si solas como digital clean view y la opcion backlight que se va a 20 o otros modelos que ponen un aviso que dice se esta reproduciendo un contenido HDR,gracias Braddy de nuevo por tan buenos contenidos y por su amabilidad con los usuarios.

Frafel
19/10/2017, 11:48
Desc_g_

flujo
19/10/2017, 13:19
gracias

Padrino1313
19/10/2017, 14:45
Desc_g_

Brady
19/10/2017, 14:50
Ok me refiero por ejemplo mi televisor es un samsung 4k HDR y cuando algun contenodo HDR se reproduce sea traves de un reproductor 4k o Amazon o Netflix hay opciones que se calibran por si solas como digital clean view y la opcion backlight que se va a 20 o otros modelos que ponen un aviso que dice se esta reproduciendo un contenido HDR,gracias Braddy de nuevo por tan buenos contenidos y por su amabilidad con los usuarios.

ahhh claro ya te entendi, es cierto, de hecho yo aveces miro netflix y hay opciones y puedes ver en que calidad la estas mirando ya sea 360p 480p, 720p 1080p y 4k, ya sea con o sin hdr, pero la vrd yo dudo mucho que este tipo de peliculas te den esas opciones, solamente puedes cambiar de idiomas, de audios de subtitulos, pero eso que dices no, no porque no es streaming, lo demas son streamings llamese netflix amazon etc y te dicen si tiene o no pero estas pelis 4k que subo si tienen HDR, y hay otros releases sin HDR pero pesan casi el doble sin el HDR, por eso mejor eligo subir las HDR y de nada amigo, cuando gustes, para eso estamos cualquier duda háznosla saber

Escobar-viqueira
20/10/2017, 10:44
bajando

orostico
20/10/2017, 14:12
:) Saludos

novatoxp
20/10/2017, 15:13
Desc_g_

roblediyo
20/10/2017, 16:22
Gracias.

xikoh99
21/10/2017, 02:30
Desc_g_

ARMAN777
21/10/2017, 02:43
Desc_g_

amanuma
21/10/2017, 13:58
Desc_g_

fewac
22/10/2017, 03:27
gracias!!!

juniorgarabo
22/10/2017, 13:22
Desc_g_

gibrannr1
23/10/2017, 01:12
Desc_g_

cripp
23/10/2017, 12:42
Gracias por compartir

FILI19
23/10/2017, 14:47
Desc_g_

coyote81
23/10/2017, 16:27
muchas graciassss

stelgerw
24/10/2017, 21:44
descargando

luisediver
28/10/2017, 12:24
gracias

ccarrasco
28/10/2017, 23:02
Desc_g_

iori_2700
29/10/2017, 01:33
Desc_g_

Jamesgoz
03/11/2017, 17:49
gracias

zorro5140
05/11/2017, 16:11
excelente gracias por el aporte

beaubinz
15/11/2017, 21:30
alguien que tenga problemas con el audio en español?... inicia todo bien hasta la mitad más o menos y a partir de ahí hay un delay tremendo, primero suena la voz y luego recién hay acción... podrían alguien confirmar q pasa lo mismo? Gracias.

carlosselkoala
28/11/2017, 17:50
Desc_g_

tuhangel
10/12/2017, 10:17
excelente

el guicho
11/12/2017, 00:57
gracias

gibrannr1
27/12/2017, 17:56
alguien que tenga problemas con el audio en español?... inicia todo bien hasta la mitad más o menos y a partir de ahí hay un delay tremendo, primero suena la voz y luego recién hay acción... podrían alguien confirmar q pasa lo mismo? Gracias.

A mi me pasa exactamente lo mismo con el audio en español, alguien sabe como lo podemos solucionar?

jcvallenato
28/12/2017, 17:33
Muchas gracias

tsubasa100
25/01/2018, 16:06
gracias

Andreslvl
02/02/2018, 13:13
Desc_g_

angello82
09/02/2018, 17:11
Gracias

gabrielx5
10/02/2018, 23:02
GRACIAS

christian
16/03/2018, 11:39
gracias

OutworK
16/03/2018, 13:58
Muchas gracias por el aporte!
El audio en español tiene problemas de desfase.

joelmax18
09/04/2018, 21:32
gracias

ecuavideos
22/06/2018, 12:13
gracias