PDA

Ver la versión completa : John Wick: Chapter Two (2017) 2160p 4k UHD HDR Dual Latino-Inglés [Subt. Esp] (Acción. Thriller)



Brady
11/10/2017, 07:02
https://3.bp.blogspot.com/-yqXepjQYUos/Wd3mSZNxtBI/AAAAAAAAApY/czY4FD5fDVwt1WcRT_O5elVANBO5OQ23wCLcBGAs/s1600/wick.jpg


https://1.bp.blogspot.com/-s6PuW6TawPg/WaxnWg-5pPI/AAAAAAAAALs/OMh7vMt1tkAKRT8kSue_zxgG64KJ0Ss1ACLcBGAs/s1600/ficha%2Btecnica%2Bclub.jpg



Título original: John Wick: Chapter Two
Año: 2017
Duración: 122 min.
País: https://www.filmaffinity.com/imgs/countries/US.jpg United State
Director: Chad Stahelski
Guion: Derek Kolstad
Productora: Coproducción USA-Hong Kong; 87Eleven / Lionsgate / Thunder Road Pictures
Género: Acción. Thriller | Crimen. Secuela


SINOPSIS
El legendario asesino John Wick (Keanu Reeves) se ve obligado a salir del retiro por un ex-asociado que planea obtener el control de un misterioso grupo internacional de asesinos. Obligado a ayudarlo por un juramento de sangre, John emprende un viaje a Roma lleno de adrenalina estremecedora para pelear contra los asesinos más peligrosos del mundo.

TRAILER

https://www.youtube.com/watch?v=YKzr0IPzaqQ

Datos Técnicos
Video:
MPEGH HEVC / 2160p / High Profile 5.1 / 12700 kbps

Audio:
Español Latino / AC3 5.1/ 640 kbps / 48kHz / Bluray 4k
Inglés / DTS MA Audio/Core 7.1/5.1/ 4459/1509 kbps / 48kHz / Bluray 4k
Inglés / AC3 5.1 / 640 kbps / 48kHz / Bluray 4k

Subs:
Español Latino / SubRip / Bluray
PGS Latino / Sup / Bluray 4k
Inglés / SubRip / Bluray 4k
PGS Inglés / Sup / Bluray 4k


General
Unique ID : 182874781935222809750082049355462547126 (0x899466E04FEEF6ACA248B5C362FD16B6)
Format : Matroska
Format version : Version 4 / Version 2
File size : 15.8 GiB
Duration : 2 h 2 min
Overall bit rate : 18.5 Mb/s
Encoded date : UTC 2017-10-10 23:35:01
Writing application : mkvmerge v9.9.0 ('Pick Up') 64bit
Writing library : libebml v1.3.4 + libmatroska v1.4.5
Uploader : Brady
Web : www.club-hd.com

Video
ID : 1
Format : HEVC
Format/Info : High Efficiency Video Coding
Format profile : Main 10@L5.1@High
Codec ID : V_MPEGH/ISO/HEVC
Duration : 2 h 2 min
Bit rate : 12.7 Mb/s
Width : 3 840 pixels
Height : 1 600 pixels
Display aspect ratio : 2.40:1
Frame rate mode : Constant
Frame rate : 23.976 (24000/1001) FPS
Color space : YUV
Chroma subsampling : 4:2:0 (Type 2)
Bit depth : 10 bits
Bits/(Pixel*Frame) : 0.086
Stream size : 10.9 GiB (69%)
Writing library : x265 2.5+4-b4a5bcfe29c7:[Windows][GCC 4.9.3][64 bit] 10bit
Encoding settings : cpuid=1173503 / frame-threads=16 / numa-pools=24,24,24,24 / wpp / no-pmode / no-pme / no-psnr / no-ssim / log-level=2 / input-csp=1 / input-res=3840x1600 / interlace=0 / total-frames=0 / level-idc=51 / high-tier=1 / uhd-bd=0 / ref=3 / no-allow-non-conformance / repeat-headers / annexb / aud / hrd / info / hash=0 / no-temporal-layers / no-open-gop / min-keyint=1 / keyint=24 / bframes=4 / b-adapt=2 / b-pyramid / bframe-bias=0 / rc-lookahead=25 / lookahead-slices=4 / scenecut=40 / no-intra-refresh / ctu=64 / min-cu-size=8 / no-rect / no-amp / max-tu-size=32 / tu-inter-depth=1 / tu-intra-depth=1 / limit-tu=0 / rdoq-level=0 / dynamic-rd=0.00 / no-ssim-rd / signhide / no-tskip / nr-intra=0 / nr-inter=0 / no-constrained-intra / strong-intra-smoothing / max-merge=2 / limit-refs=3 / no-limit-modes / me=1 / subme=2 / merange=57 / temporal-mvp / weightp / no-weightb / no-analyze-src-pics / deblock=0:0 / no-sao / no-sao-non-deblock / rd=3 / no-early-skip / rskip / no-fast-intra / no-tskip-fast / no-cu-lossless / no-b-intra / rdpenalty=0 / psy-rd=2.00 / psy-rdoq=0.00 / no-rd-refine / analysis-reuse-mode=0 / no-lossless / cbqpoffs=0 / crqpoffs=0 / rc=crf / crf=16.0 / qcomp=0.60 / qpstep=4 / stats-write=0 / stats-read=0 / vbv-maxrate=160000 / vbv-bufsize=160000 / vbv-init=0.9 / crf-max=0.0 / crf-min=0.0 / ipratio=1.40 / pbratio=1.30 / aq-mode=1 / aq-strength=1.00 / cutree / zone-count=0 / no-strict-cbr / qg-size=32 / no-rc-grain / qpmax=69 / qpmin=0 / no-const-vbv / sar=1 / overscan=0 / videoformat=5 / range=0 / colorprim=9 / transfer=16 / colormatrix=9 / chromaloc=1 / chromaloc-top=2 / chromaloc-bottom=2 / display-window=0 / master-display=G(13250,34500)B(7500,3000)R(34000,16000)WP(15635,16450)L(10000000,0) / max-cll=1000,510 / min-luma=0 / max-luma=1023 / log2-max-poc-lsb=8 / vui-timing-info / vui-hrd-info / slices=1 / opt-qp-pps / opt-ref-list-length-pps / no-multi-pass-opt-rps / scenecut-bias=0.05 / no-opt-cu-delta-qp / no-aq-motion / hdr / hdr-opt / no-dhdr10-opt / analysis-reuse-level=5 / scale-factor=0 / refine-intra=0 / refine-inter=0 / refine-mv=0 / no-limit-sao / ctu-info=0
Language : English
Default : Yes
Forced : No
Color range : Limited
Color primaries : BT.2020
Transfer characteristics : SMPTE ST 2084
Matrix coefficients : BT.2020 non-constant
Mastering display color pri : R: x=0.680000 y=0.320000, G: x=0.265000 y=0.690000, B: x=0.150000 y=0.060000, White point: x=0.312700 y=0.329000
Mastering display luminance : min: 0.0000 cd/m2, max: 1000.0000 cd/m2
Maximum Content Light Level : 1000 cd/m2
Maximum Frame-Average Light : 510 cd/m2

Audio #1
ID : 2
Format : AC-3
Format/Info : Audio Coding 3
Mode extension : CM (complete main)
Format settings, Endianness : Big
Codec ID : A_AC3
Duration : 2 h 2 min
Bit rate mode : Constant
Bit rate : 640 kb/s
Channel(s) : 6 channels
Channel positions : Front: L C R, Side: L R, LFE
Sampling rate : 48.0 kHz
Frame rate : 31.250 FPS (1536 spf)
Bit depth : 16 bits
Compression mode : Lossy
Stream size : 560 MiB (3%)
Title : Latino AC3 5.1 640 kbps Bluray 4k
Language : Latin
Default : Yes
Forced : No

Audio #2
ID : 3
Format : DTS
Format/Info : Digital Theater Systems
Format profile : MA / Core
Mode : 16
Format settings, Endianness : Big
Codec ID : A_DTS
Duration : 2 h 2 min
Bit rate mode : Variable / Constant
Bit rate : 4 459 kb/s / 1 509 kb/s
Channel(s) : 8 channels / 6 channels
Channel positions : Front: L C R, Side: L R, Back: L R, LFE / Front: L C R, Side: L R, LFE
Sampling rate : 48.0 kHz
Frame rate : 93.750 FPS (512 spf)
Bit depth : 24 bits
Compression mode : Lossless / Lossy
Stream size : 3.81 GiB (24%)
Title : Ingles DTS MA/Core 7.1/5.1 4459/1509 kbps Bluray 4k
Language : English
Default : No
Forced : No

Audio #3
ID : 4
Format : AC-3
Format/Info : Audio Coding 3
Mode extension : CM (complete main)
Format settings, Endianness : Big
Codec ID : A_AC3
Duration : 2 h 2 min
Bit rate mode : Constant
Bit rate : 640 kb/s
Channel(s) : 6 channels
Channel positions : Front: L C R, Side: L R, LFE
Sampling rate : 48.0 kHz
Frame rate : 31.250 FPS (1536 spf)
Bit depth : 16 bits
Compression mode : Lossy
Delay relative to video : 31 ms
Stream size : 560 MiB (3%)
Title : Ingles AC3 5.1 640 kbps Bluray 4k
Language : English
Default : No
Forced : No

Text #1
ID : 5
Format : UTF-8
Codec ID : S_TEXT/UTF8
Codec ID/Info : UTF-8 Plain Text
Duration : 1 h 50 min
Bit rate : 23 b/s
Count of elements : 719
Stream size : 18.8 KiB (0%)
Title : Latino
Language : Latin
Default : Yes
Forced : No

Text #2
ID : 6
Format : PGS
Muxing mode : zlib
Codec ID : S_HDMV/PGS
Codec ID/Info : Picture based subtitle format used on BDs/HD-DVDs
Duration : 1 h 52 min
Bit rate : 7 614 b/s
Count of elements : 1446
Stream size : 6.14 MiB (0%)
Title : Latino PGS
Language : Latin
Default : No
Forced : No

Text #3
ID : 7
Format : UTF-8
Codec ID : S_TEXT/UTF8
Codec ID/Info : UTF-8 Plain Text
Duration : 1 h 49 min
Bit rate : 21 b/s
Count of elements : 669
Stream size : 17.5 KiB (0%)
Title : Ingles
Language : English
Default : No
Forced : No

Text #4
ID : 8
Format : PGS
Muxing mode : zlib
Codec ID : S_HDMV/PGS
Codec ID/Info : Picture based subtitle format used on BDs/HD-DVDs
Duration : 1 h 49 min
Bit rate : 7 360 b/s
Count of elements : 1338
Stream size : 5.78 MiB (0%)
Title : Ingles PGS
Language : English
Default : No
Forced : No



http://i.picasion.com/resize86/9844545824b3026d793bc689d2ca154c.jpg

https://1.bp.blogspot.com/-CTQ9P8DmaEY/Wd3mePcnE-I/AAAAAAAAApg/4l9FBUgGIW4c-7xDCOzCTqC2GAFDeu3OACLcBGAs/s1600/1.png

https://4.bp.blogspot.com/-h84DbO16zfg/Wd3meFfS_XI/AAAAAAAAApc/YZrw_WJR7DItDQ52qwvIcg_wjY-NwGRHQCLcBGAs/s1600/2.png

https://3.bp.blogspot.com/-xx4zK6YdVwo/Wd3meUH_i1I/AAAAAAAAApk/0ZVPz510Zag-UcqnZXKaA3wTuarEkvEXACLcBGAs/s1600/3.png

https://3.bp.blogspot.com/-ZfJ87FFnsAo/Wd3meucN8sI/AAAAAAAAApo/PjerPqDlhb8nmj9YCu27QUd78_5DPY1QgCLcBGAs/s1600/4.png

https://4.bp.blogspot.com/-9hY7aRMSMTI/Wd3me4FMziI/AAAAAAAAAps/qupQkQpk1IA_AXvviOkLN8losUygnu7TQCLcBGAs/s1600/5.png

DESCARGA


Links Intercambiables

https://3.bp.blogspot.com/-n3vyYws6udw/WYitgMOaduI/AAAAAAAA1L0/PE1jBg4l_7I2Cp9SjlekwnTQbXZwrQo3wCLcBGAs/s1600/1FICHIER-BANNER.png
**Hidden Content: Check the thread to see hidden data.**

http://2.bp.blogspot.com/-nXtN7MPZ_A8/VZab6hvUJRI/AAAAAAAAsNY/1VAgQ63UKOQ/s1600/MEGA-BANNER.png
**Hidden Content: Check the thread to see hidden data.**

http://3.bp.blogspot.com/-Yh5P3OSnxaQ/UOkNsmy5n6I/AAAAAAAAFG8/J9B4jZodRqM/s1600/UPLOADED_BANNER.png
**Hidden Content: Check the thread to see hidden data.**

https://1.bp.blogspot.com/-PE8m5kK7vYo/WJoNpVnuMnI/AAAAAAAA0go/jTlWOR0KOCEoUUzcNlzAqSRBkzh8nRT4QCLcB/s1600/OPENLOAD.png
**Hidden Content: Check the thread to see hidden data.**

https://4.bp.blogspot.com/-qqShfCTogHE/WaxnWvr1vHI/AAAAAAAAAL0/aTU3k5gHeNYqWMWsFEdXHF722AwHK0bewCLcBGAs/s1600/contrase%25C3%25B1a%2Bclub%2Bhd.jpg




www.club-hd.com

Josiba
11/10/2017, 07:14
Desc_g_

juniorgarabo
11/10/2017, 09:03
Desc_g_

jpabloy
11/10/2017, 09:23
que buena saga

ali2134
11/10/2017, 09:46
@Brady notas la diferencia a simple vista con la version remux?

cripp
11/10/2017, 11:19
Gracias por compartir

bielo
11/10/2017, 12:00
Desc_g_

Brady
11/10/2017, 12:51
@Brady notas la diferencia a simple vista con la version remux?

te daria una respuesta, pero no me baje el remux, aqui no se suben los remux, pero es ovio que los remux tienen mucho mejor calidad que esta version, los remux son casi el BD completo, solo que sin algunos audios extras subtitulos que trae el 4k completo, pero no sabria decirte porque no me bajo los remux, no se suben los remux y no puedo hacer
alguna comparacion, pero si te puedo decir, que en los remux hay mejor calidad

ali2134
11/10/2017, 13:14
te daria una respuesta, pero no me baje el remux, aqui no se suben los remux, pero es ovio que los remux tienen mucho mejor calidad que esta version, los remux son casi el BD completo, solo que sin algunos audios extras subtitulos que trae el 4k completo, pero no sabria decirte porque no me bajo los remux, no se suben los remux y no puedo hacer
alguna comparacion, pero si te puedo decir, que en los remux hay mejor calidad

te agradezco la respuesta, yo tampoco tengo una tv 4k :) , queria saber tu opinion muchas gracias

amanuma
11/10/2017, 15:28
Desc_g_yeah 4k!!!!!!!!!!!:dplgar:

roblediyo
11/10/2017, 16:03
gracias

Brady
11/10/2017, 16:43
te agradezco la respuesta, yo tampoco tengo una tv 4k :) , queria saber tu opinion muchas gracias

de nada, cuando gustes, para eso estamos, bueno tecnicamente yo si tengo una tv 4k, pero lo que quize decir es que no me eh bajado nada para mi, solo para subir al club, pero depende tmb si tu tv tiene hdr o si es sin hdr, los remux si tienen hdr pero si tu tv no pues ahi sera diferente, haber cuando me bajo el remux o bd completo y la miro en mi tv 4k
y de nada, cuidate bye

joguba
11/10/2017, 17:24
Thank's

cpola
11/10/2017, 18:38
Gracias

virus619
11/10/2017, 19:00
Desc_g_

adfsm76
11/10/2017, 19:07
graciasssssssssssssssssssssss

joelmax18
11/10/2017, 19:36
gracias

JCAvila
11/10/2017, 20:09
gracias!

neto6911
11/10/2017, 20:24
Desc_g_ Gracias

strider_01
11/10/2017, 21:07
Desc_g_

stelgerw
11/10/2017, 21:21
DESCARGANDO

iori_2700
11/10/2017, 22:49
Desc_g_:yessir:

dastan84
11/10/2017, 23:02
gracias

novatoxp
12/10/2017, 02:26
Desc_g_

fewac
12/10/2017, 02:41
gracias!!!

wvasquez
12/10/2017, 08:17
Gracias

flujo
12/10/2017, 14:15
gracias

blaster
12/10/2017, 16:40
Permitan que opine,pero los remux nunca va a tener casi la misma calidad que el BD completo ya que por ejemplo en Bitrate de un BD 4K es de 80 Mbps y el Bitrate de un remux baja a la mitad y es ahí donde pierde mucha calidad. En este caso John Wick: Chapter Two (2017) 2160p 4k UHD HDR cuenta con un Bitrate de 12 Mbps.

coyote81
12/10/2017, 21:01
muchassss gracias!!

beaubinz
12/10/2017, 21:55
Desc_g_

riu56
13/10/2017, 02:20
Desc_g_

Gotischer_Junge
13/10/2017, 11:58
Desc_g_

jmst1011
13/10/2017, 17:02
gracias

jramirez05
13/10/2017, 18:08
gracias

carlos78
13/10/2017, 19:47
graciassssssss

MegavetH
13/10/2017, 20:47
Gracias

RagazzoRosso
14/10/2017, 13:48
Desc_g_

rockhowardsnk
14/10/2017, 14:00
Desc_g_

Prem1er
16/10/2017, 19:26
GRACIAS!

Prem1er
16/10/2017, 19:36
GRACIAS!

jairfon28
16/10/2017, 23:52
Gracias.

Aaron
17/10/2017, 20:43
Desc_g_

isaiasrm
18/10/2017, 00:13
Desc_g_

scorpionrd
18/10/2017, 00:54
gracias....

xikoh99
21/10/2017, 02:42
Desc_g_

ARMAN777
21/10/2017, 03:31
Desc_g_

ValentinPbo
27/10/2017, 19:31
gracias

RiverPlate1031
29/10/2017, 23:48
Descargando Gracias

j-galicia-h
31/10/2017, 04:23
gracias amigo bajando buena pelicula

patoch
03/11/2017, 15:49
Desc_g_

Jamesgoz
03/11/2017, 17:57
gracias

parellanocl
12/11/2017, 14:13
Muchas gracias.

sr.canibal
14/11/2017, 18:13
:pulgar1:

costafede
20/11/2017, 11:08
e-pec-tacularrr

samuelabad
22/11/2017, 20:03
Gracias

tsubasa100
23/11/2017, 23:53
que buena saga

rcruanes
24/11/2017, 04:59
downloading

alesgdl
29/11/2017, 09:11
muchas gracias

lpdavila85
01/12/2017, 21:20
Gracias por el aporte

PATRICIOG
07/12/2017, 07:26
Desc_g_

tuhangel
10/12/2017, 10:08
excelente

mx777
21/12/2017, 09:32
Desc_g_

claussen66
27/12/2017, 08:19
vamos a verla pues

jcvallenato
28/12/2017, 13:27
Excelente pelicula

taculi
28/12/2017, 16:33
gracias !!!!

frankan85
29/12/2017, 20:47
gracias

argentum
02/01/2018, 02:44
peliculon

Dumas
09/01/2018, 14:36
Desc_g_

Andreslvl
22/01/2018, 21:46
Desc_g_

mmartelli
23/01/2018, 20:59
MUCHAS GRACIAS

mariospider
24/01/2018, 04:05
http://www.club-hd.com/images/smilies/DESCARGANDO.png

davisariel
25/01/2018, 08:51
Desc_g_

pablozoladz
01/02/2018, 14:41
Desc_g_

angello82
09/02/2018, 17:12
Gracias.

gabrielx5
10/02/2018, 17:48
GRACIAS

ramses
11/02/2018, 22:16
Desc_g_

msr.1899
21/02/2018, 15:55
Gracias

darkjls
07/03/2018, 04:15
Desc_g_

kalipitter
31/03/2018, 13:14
Gracias

DOMINICC29
06/04/2018, 18:47
Desc_g_

frankarter
13/05/2018, 12:27
Desc_g_

Darkains
27/05/2018, 13:22
Desc_g_

mambex86
09/06/2018, 01:32
excelente!!!!!!

x3ro
09/06/2018, 17:23
muchas gracias

ecuavideos
22/06/2018, 11:14
gracias

diphunk
22/06/2018, 23:54
gracias

totofloyd
27/06/2018, 16:43
gracias:pulgar1:

veloxoko
09/07/2018, 11:05
Desc_g_

vidalfest
07/08/2018, 19:51
Bajando Gracias

vidalfest
08/08/2018, 11:10
Los links en uploaded se cayeron

drigo07
08/09/2018, 17:27
buen aporte