PDA

Ver la versión completa : The Martian Extended (2015) 2160p 4k UHD HDR Dual Latino-Inglés [Subt. Esp] (Ciencia Ficción. Drama)



Brady
16/09/2017, 16:33
https://3.bp.blogspot.com/-eM9nRI_r9Ms/Wb1uuIMNsVI/AAAAAAAAAUc/xtwuyk0y3lsj3YUMVSnZdTD2vYDrTq5vgCLcBGAs/s1600/martian%2B4k.jpg


https://1.bp.blogspot.com/-s6PuW6TawPg/WaxnWg-5pPI/AAAAAAAAALs/OMh7vMt1tkAKRT8kSue_zxgG64KJ0Ss1ACLcBGAs/s1600/ficha%2Btecnica%2Bclub.jpg



Título original: The Martian
Año: 2015
Duración: 142 min.
País: https://www.filmaffinity.com/imgs/countries/US.jpg United State
Director: Ridley Scott
Guion: Drew Goddard (Novela: Andy Weir)
Productora: 20th Century Fox / Scott Free / TSG Entertainmen
Género: Ciencia ficción. Drama | Aventura espacial. Supervivencia. 3-D


SINOPSIS
Durante una misión tripulada a Marte, el astronauta Mark Watney es dado por muerto tras una terrible tormenta y abandonado por la tripulación, que pone rumbo de vuelta a la Tierra. Pero Watney ha sobrevivido y se encuentra atrapado y solo en el hostil planeta rojo. Con suministros escasos, deberá recurrir a su ingenio y a su instinto de supervivencia para encontrar la manera de comunicar a la Tierra que sigue vivo

TRAILER

https://www.youtube.com/watch?v=zGhrIpnMXQU


Datos Técnicos
Video:
MPEGH HEVC / 2160p / High Profile 5.1 / 12600 kbps

Audio:
Español Latino / AC3 5.1/ 448 kbps / 48kHz / Bluray 4k
Inglés / Atmos/TrueHD 7.1 / 5414/5997 kbps / 48kHz / Bluray 4k
Inglés / AC3 5.1 / 640 kbps / 48kHz / Bluray 4k

Subs:
Español Latino / SubRip / Bluray
Forzados / SubRip / Bluray
Ingles / SubRip / Bluray 4k
PGS Latino / Sup / Bluray 4k
PGS Ingles / Sup / Bluray 4k


General
Unique ID : 228600253890809218072107525327839175791 (0xABFACEB37D29379187E8F79F8B96246F)
Format : Matroska
Format version : Version 4 / Version 2
File size : 20.3 GiB
Duration : 2 h 31 min
Overall bit rate mode : Variable
Overall bit rate : 19.2 Mb/s
Encoded date : UTC 2017-09-16 02:24:47
Writing application : mkvmerge v9.9.0 ('Pick Up') 64bit
Writing library : libebml v1.3.4 + libmatroska v1.4.5
Cover : Yes
Attachments : cover.jpg
Uploader : Brady
Web : www.club-hd.com

Video
ID : 1
Format : HEVC
Format/Info : High Efficiency Video Coding
Format profile : Main 10@L5.1@High
Codec ID : V_MPEGH/ISO/HEVC
Duration : 2 h 31 min
Bit rate : 12.6 Mb/s
Width : 3 840 pixels
Height : 1 600 pixels
Display aspect ratio : 2.40:1
Frame rate mode : Constant
Frame rate : 23.976 (24000/1001) FPS
Color space : YUV
Chroma subsampling : 4:2:0 (Type 2)
Bit depth : 10 bits
Bits/(Pixel*Frame) : 0.086
Stream size : 13.3 GiB (66%)
Writing library : x265 2.5+4-b4a5bcfe29c7:[Windows][GCC 4.9.3][64 bit] 10bit
Encoding settings : cpuid=1173503 / frame-threads=16 / numa-pools=24,24,24,24 / wpp / no-pmode / no-pme / no-psnr / no-ssim / log-level=2 / input-csp=1 / input-res=3840x1600 / interlace=0 / total-frames=0 / level-idc=51 / high-tier=1 / uhd-bd=0 / ref=3 / no-allow-non-conformance / repeat-headers / annexb / aud / hrd / info / hash=0 / no-temporal-layers / no-open-gop / min-keyint=1 / keyint=24 / bframes=4 / b-adapt=2 / b-pyramid / bframe-bias=0 / rc-lookahead=25 / lookahead-slices=4 / scenecut=40 / no-intra-refresh / ctu=64 / min-cu-size=8 / no-rect / no-amp / max-tu-size=32 / tu-inter-depth=1 / tu-intra-depth=1 / limit-tu=0 / rdoq-level=0 / dynamic-rd=0.00 / no-ssim-rd / signhide / no-tskip / nr-intra=0 / nr-inter=0 / no-constrained-intra / strong-intra-smoothing / max-merge=2 / limit-refs=3 / no-limit-modes / me=1 / subme=2 / merange=57 / temporal-mvp / weightp / no-weightb / no-analyze-src-pics / deblock=0:0 / no-sao / no-sao-non-deblock / rd=3 / no-early-skip / rskip / no-fast-intra / no-tskip-fast / no-cu-lossless / no-b-intra / rdpenalty=0 / psy-rd=2.00 / psy-rdoq=0.00 / no-rd-refine / analysis-reuse-mode=0 / no-lossless / cbqpoffs=0 / crqpoffs=0 / rc=crf / crf=16.0 / qcomp=0.60 / qpstep=4 / stats-write=0 / stats-read=0 / vbv-maxrate=160000 / vbv-bufsize=160000 / vbv-init=0.9 / crf-max=0.0 / crf-min=0.0 / ipratio=1.40 / pbratio=1.30 / aq-mode=1 / aq-strength=1.00 / cutree / zone-count=0 / no-strict-cbr / qg-size=32 / no-rc-grain / qpmax=69 / qpmin=0 / no-const-vbv / sar=1 / overscan=0 / videoformat=5 / range=0 / colorprim=9 / transfer=16 / colormatrix=9 / chromaloc=1 / chromaloc-top=2 / chromaloc-bottom=2 / display-window=0 / master-display=G(13250,34500)B(7500,3000)R(34000,16000)WP(15635,16450)L(10000000,0) / max-cll=1000,400 / min-luma=0 / max-luma=1023 / log2-max-poc-lsb=8 / vui-timing-info / vui-hrd-info / slices=1 / opt-qp-pps / opt-ref-list-length-pps / no-multi-pass-opt-rps / scenecut-bias=0.05 / no-opt-cu-delta-qp / no-aq-motion / hdr / hdr-opt / no-dhdr10-opt / analysis-reuse-level=5 / scale-factor=0 / refine-intra=0 / refine-inter=0 / refine-mv=0 / no-limit-sao / ctu-info=0
Language : English
Default : Yes
Forced : No
Color range : Limited
Color primaries : BT.2020
Transfer characteristics : SMPTE ST 2084
Matrix coefficients : BT.2020 non-constant
Mastering display color pri : R: x=0.680000 y=0.320000, G: x=0.265000 y=0.690000, B: x=0.150000 y=0.060000, White point: x=0.312700 y=0.329000
Mastering display luminance : min: 0.0000 cd/m2, max: 1000.0000 cd/m2
Maximum Content Light Level : 1000 cd/m2
Maximum Frame-Average Light : 400 cd/m2

Audio #1
ID : 2
Format : AC-3
Format/Info : Audio Coding 3
Mode extension : CM (complete main)
Format settings, Endianness : Big
Codec ID : A_AC3
Duration : 2 h 31 min
Bit rate mode : Constant
Bit rate : 448 kb/s
Channel(s) : 6 channels
Channel positions : Front: L C R, Side: L R, LFE
Sampling rate : 48.0 kHz
Frame rate : 31.250 FPS (1536 spf)
Bit depth : 16 bits
Compression mode : Lossy
Stream size : 485 MiB (2%)
Title : Latino AC3 5.1 448kbps Bluray 4k
Language : Latin
Default : Yes
Forced : No

Audio #2
ID : 3
Format : Atmos / TrueHD
Codec ID : A_TRUEHD
Duration : 2 h 31 min
Bit rate mode : Variable
Bit rate : 5 414 kb/s
Maximum bit rate : 5 997 kb/s
Channel(s) : Object Based / 8 channels
Channel positions : Object Based / Front: L C R, Side: L R, Back: L R, LFE
Sampling rate : / 48.0 kHz
Frame rate : 1 200.000 FPS (40 spf)
Compression mode : Lossless
Stream size : 5.72 GiB (28%)
Title : Atmos/TrueHD 7.1 5414/5997kbps Bluray 4k
Language : English
Default : No
Forced : No

Audio #3
ID : 4
Format : AC-3
Format/Info : Audio Coding 3
Mode extension : CM (complete main)
Format settings, Endianness : Big
Codec ID : A_AC3
Duration : 2 h 31 min
Bit rate mode : Constant
Bit rate : 640 kb/s
Channel(s) : 6 channels
Channel positions : Front: L C R, Side: L R, LFE
Sampling rate : 48.0 kHz
Frame rate : 31.250 FPS (1536 spf)
Bit depth : 16 bits
Compression mode : Lossy
Stream size : 693 MiB (3%)
Title : Ingles AC3 5.1 640kbps Bluray 4k
Language : English
Default : No
Forced : No

Text #1
ID : 5
Format : UTF-8
Codec ID : S_TEXT/UTF8
Codec ID/Info : UTF-8 Plain Text
Duration : 2 h 25 min
Bit rate : 57 b/s
Count of elements : 1767
Stream size : 61.5 KiB (0%)
Title : Latino
Language : Latin
Default : Yes
Forced : No

Text #2
ID : 6
Format : UTF-8
Codec ID : S_TEXT/UTF8
Codec ID/Info : UTF-8 Plain Text
Duration : 2 h 19 min
Bit rate : 1 b/s
Count of elements : 65
Stream size : 1.83 KiB (0%)
Title : Forzados
Language : Latin
Default : No
Forced : No

Text #3
ID : 7
Format : UTF-8
Codec ID : S_TEXT/UTF8
Codec ID/Info : UTF-8 Plain Text
Duration : 2 h 25 min
Bit rate : 61 b/s
Count of elements : 2080
Stream size : 65.7 KiB (0%)
Title : Ingles
Language : English
Default : No
Forced : No

Text #4
ID : 8
Format : PGS
Muxing mode : zlib
Codec ID : S_HDMV/PGS
Codec ID/Info : Picture based subtitle format used on BDs/HD-DVDs
Duration : 2 h 31 min
Bit rate : 10.1 kb/s
Count of elements : 3539
Stream size : 10.9 MiB (0%)
Title : PGS Latino
Language : Latin
Default : No
Forced : No

Text #5
ID : 9
Format : PGS
Muxing mode : zlib
Codec ID : S_HDMV/PGS
Codec ID/Info : Picture based subtitle format used on BDs/HD-DVDs
Duration : 2 h 27 min
Bit rate : 13.3 kb/s
Count of elements : 4489
Stream size : 14.0 MiB (0%)
Title : PGS Ingles
Language : English
Default : No
Forced : No

Menu
00:00:00.000 : en:Chapter 1
00:03:22.285 : en:Chapter 2
00:10:15.156 : en:Chapter 3
00:15:24.590 : en:Chapter 4
00:18:25.187 : en:Chapter 5
00:21:58.817 : en:Chapter 6
00:24:52.532 : en:Chapter 7
00:29:17.130 : en:Chapter 8
00:32:01.085 : en:Chapter 9
00:34:45.541 : en:Chapter 10
00:40:08.155 : en:Chapter 11
00:42:48.315 : en:Chapter 12
00:47:50.075 : en:Chapter 13
00:51:12.736 : en:Chapter 14
00:58:03.396 : en:Chapter 15
01:01:41.614 : en:Chapter 16
01:04:24.944 : en:Chapter 17
01:08:54.254 : en:Chapter 18
01:11:54.101 : en:Chapter 19
01:16:33.505 : en:Chapter 20
01:22:05.503 : en:Chapter 21
01:26:19.715 : en:Chapter 22
01:37:47.653 : en:Chapter 23
01:44:36.478 : en:Chapter 24
01:50:38.381 : en:Chapter 25
01:53:22.670 : en:Chapter 26
01:59:17.566 : en:Chapter 27
02:03:51.006 : en:Chapter 28
02:07:32.352 : en:Chapter 29
02:14:24.723 : en:Chapter 30
02:20:48.397 : en:Chapter 31
02:23:11.832 : en:Chapter 32



http://i.picasion.com/resize86/9844545824b3026d793bc689d2ca154c.jpg

https://2.bp.blogspot.com/-06VK04YCXzI/Wb1xCj9MYGI/AAAAAAAAAUs/Ocgt07D-MQw0OIX8nYQOh5pdVQ8mmQ2SgCLcBGAs/s1600/1.png

https://1.bp.blogspot.com/-GYSdG_XLqgg/Wb1xCuNEo1I/AAAAAAAAAUw/B56Obv1P8u0xa0lOc61d0DkLOfsFJlkUgCLcBGAs/s1600/2.png

https://3.bp.blogspot.com/-W9b4HCgLAR4/Wb1xCtHDSVI/AAAAAAAAAUo/2k-RUrzCc880WxgTmKHn-gCln6bvpQVuQCLcBGAs/s1600/3.png

https://3.bp.blogspot.com/-D9BNxyW_VWk/Wb1xDUzWJYI/AAAAAAAAAU0/Ro8DR8GDWcgpfH8MIstJXSV5sR3uev7gwCLcBGAs/s1600/4.png

https://4.bp.blogspot.com/-8-ckOlXlaf4/Wb1xDeOvudI/AAAAAAAAAU4/gwiMP3jPUFAWpNuHR8Ll2CJ_i-nt2GPkwCLcBGAs/s1600/5.png

DESCARGA


Links Intercambiables

https://3.bp.blogspot.com/-n3vyYws6udw/WYitgMOaduI/AAAAAAAA1L0/PE1jBg4l_7I2Cp9SjlekwnTQbXZwrQo3wCLcBGAs/s1600/1FICHIER-BANNER.png
**Hidden Content: Check the thread to see hidden data.**

http://2.bp.blogspot.com/-nXtN7MPZ_A8/VZab6hvUJRI/AAAAAAAAsNY/1VAgQ63UKOQ/s1600/MEGA-BANNER.png
**Hidden Content: Check the thread to see hidden data.**

http://3.bp.blogspot.com/-Yh5P3OSnxaQ/UOkNsmy5n6I/AAAAAAAAFG8/J9B4jZodRqM/s1600/UPLOADED_BANNER.png
**Hidden Content: Check the thread to see hidden data.**

https://1.bp.blogspot.com/-PE8m5kK7vYo/WJoNpVnuMnI/AAAAAAAA0go/jTlWOR0KOCEoUUzcNlzAqSRBkzh8nRT4QCLcB/s1600/OPENLOAD.png
**Hidden Content: Check the thread to see hidden data.**


https://4.bp.blogspot.com/-qqShfCTogHE/WaxnWvr1vHI/AAAAAAAAAL0/aTU3k5gHeNYqWMWsFEdXHF722AwHK0bewCLcBGAs/s1600/contrase%25C3%25B1a%2Bclub%2Bhd.jpg




www.club-hd.com

proveedores
16/09/2017, 17:37
Muchas gracias

Josiba
16/09/2017, 18:18
Desc_g_

juniorgarabo
16/09/2017, 20:08
Desc_g_

RESIDENT_EVIL
16/09/2017, 20:25
Desc_g_Desc_g_

cpola
16/09/2017, 21:20
Gracias

troyano2010
16/09/2017, 21:30
Desc_g_

jpages
16/09/2017, 21:37
Gracias por compartir la película.

goma22
16/09/2017, 22:17
Desc_g_ me la llevo gracias Brady.

leuco88
16/09/2017, 22:30
gracias

lamgred
16/09/2017, 22:37
muchas gracias

RickAnto
17/09/2017, 01:05
Muchas gracias!

jafont32
17/09/2017, 01:26
Gracias

arsehe
17/09/2017, 01:58
genial bajando gracias

jairfon28
17/09/2017, 02:13
Muchas gracias.

joelmax18
17/09/2017, 03:04
gracias

ERRE
17/09/2017, 09:00
Gracias...thank_you2

josefo08
17/09/2017, 10:40
Gracias por el aporteTb_up3

crischapman
17/09/2017, 12:07
gracias!

agent47
17/09/2017, 12:15
Desc_g_

ismar360
17/09/2017, 13:05
Desc_g_

novatoxp
17/09/2017, 13:09
Desc_g_

frmr
17/09/2017, 18:41
gracias

flujo
17/09/2017, 22:38
gracias

isaiasrm
17/09/2017, 22:44
Desc_g_

godofmusic
17/09/2017, 23:05
graciasssss

sosalexfame
17/09/2017, 23:52
gracias

bielo
18/09/2017, 09:25
Desc_g_

cripp
18/09/2017, 11:37
Gracias por compartir

JCAvila
18/09/2017, 15:31
gracias!

Frafel
18/09/2017, 18:36
Desc_g_

el bodoke
18/09/2017, 20:39
Muy bueno el post,tambien he visto por ahi el bluray 4k completo de esta pelicula,pero aun me pregunto si solo podre reproducir el bluray 4k completo desde un disco duro conectado a mi tv,porque dias atras me descargue Passengers comlplete 4k disc,me compre un un disco bluray de 100gb lo queme y mi reproductor 4k no lo reprducio,alguien del foro sabes si alguien ha podido grabar y reproducir un rip full de un bluray 4k?

siriusram2
19/09/2017, 03:12
Desc_g_

0irukalive
20/09/2017, 03:14
Desc_g_:)

huebsait
21/09/2017, 14:36
a espero se vea en mi TV jejejeje

Brego
21/09/2017, 22:34
gracias

muruagam
22/09/2017, 10:39
Desc_g_

carlos78
02/10/2017, 21:37
graciassssss

tsubasa100
06/10/2017, 01:44
gracias

j-galicia-h
08/10/2017, 14:01
gracias amigo bajando buena pelicula

fernando4555
14/10/2017, 01:45
Desc_g_

xikoh99
14/10/2017, 21:39
Desc_g_

ARMAN777
21/10/2017, 05:31
Desc_g_

coyote81
23/10/2017, 17:13
muchasss graciasss

algaba
25/10/2017, 19:10
gracias por el aporte

dalofe
01/11/2017, 17:26
gracias.. solo comento para desbloquear links.. despues descargo jeje

Jamesgoz
03/11/2017, 17:55
gracias

jcc111
04/11/2017, 14:42
genial, gracias master

Bernal
23/11/2017, 07:01
Desc_g_

rcruanes
24/11/2017, 05:13
downloading

samuelabad
25/11/2017, 18:03
Gracias

PATRICIOG
07/12/2017, 07:28
Desc_g_Desc_g_Desc_g_

frankan85
01/01/2018, 11:33
gracias

argentum
02/01/2018, 02:29
gracias amigo brady ... el mejor en 4k ... estoy al pendiente de tus aportes

cristianlucho56
11/01/2018, 12:13
RIVER EL MAS GRANDE

herbard
01/02/2018, 21:58
Desc_g_

gabrielx5
09/02/2018, 18:11
GRACIAS

vhrod
13/02/2018, 23:12
Desc_g_

msr.1899
21/02/2018, 21:30
gracias

Hoss
17/03/2018, 16:30
Me gusta

kubricksound
26/03/2018, 20:24
Desc_g_

diphunk
14/04/2018, 18:34
aportazo gracias

r1verpl4te
23/05/2018, 00:03
graciass

x3ro
09/06/2018, 19:05
muchas gracias

ecuavideos
22/06/2018, 08:01
gracias