PDA

Ver la versión completa : The Huntsman Winter's War [Extended] (2016) 2160p 4K UHD Dual Audio Latino-Inglés [Subt. Esp] (Fantástico. Aventuras. Acción)



HemoAr
14/07/2017, 11:25
https://1.bp.blogspot.com/-xJ8qtzdocQs/WWjOF6sJrlI/AAAAAAAARzQ/qrKUINZI9uAa-yZcZlyRkTPaiSYPKaoXgCLcBGAs/s1600/Hun4K.jpg



http://4.bp.blogspot.com/-qTnXQflzrwY/VoVuX1Vd9wI/AAAAAAAAABQ/6ncvKZHZcNU/s1600/ficha%2Bt%25C3%25A9c.png

Título original: The Huntsman: Winter's War
Año: 2016
Duración: 113 min.
País: Estados Unidos
Director: Cedric Nicolas-Troyan
Reparto: Chris Hemsworth, Emily Blunt, Jessica Chastain, Charlize Theron, Sam Claflin, Nick Frost, Alexandra Roach, Sheridan Smith, Rob Brydon, Sam Hazeldine, Jadey Duffield, Mark Haldor, Madeleine Worrall, Lynne Wilmot, Conrad Khan
Productora: Universal Pictures / Perfect World Pictures / Roth Films
Género: Fantástico. Aventuras. Acción | Cuentos. Brujería. Fantasía medieval. Precuela

Sinopsis: Mucho antes de ser apuñalada y vencida por Blancanieves, la malvada reina Ravenna (Theron) fue testigo de cómo su hermana Freya (Blunt) sufría una desgarradora traición y huía del reino. Freya vive desde entonces en un lejano palacio invernal, donde ha creado una legión de cazadores, pero descubre que Eric (Hemsworth) y la guerrera Sara (Chastain) han incumplido la única regla impuesta a los soldados: desterrar el amor eternamente de sus corazones. Al enterarse de que su hermana ha muerto, Freya reúne a los cazadores y les ordena traer el espejo mágico de la única hechicera capaz de destruir su poder. Pero cuando comprueba que puede resucitar a Ravenna, las malvadas hermanas siembran el terror en el reino encantado. El único peligro que las amenaza es que Eric y Sara sean capaces de superar todos los peligros para reencontrarse.




Puntuación en IMDb (http://www.imdb.com/title/tt2381991/?ref_=nv_sr_1)


http://2.bp.blogspot.com/-1Pff5E5GTgk/VoVuYGO2-LI/AAAAAAAAABc/UYIZqG2UFuI/s1600/trailer.png

https://www.youtube.com/watch?v=Qzno5yrT52w


http://4.bp.blogspot.com/-xKBma1_QIng/VoVuXAWbMtI/AAAAAAAAABA/t_3OE6C1xFE/s1600/captura.png


https://3.bp.blogspot.com/-615tDkElQyY/WWjOGSK-NMI/AAAAAAAARzU/1o3_EwQgIZ8cl1UFJ2p3aCL4s7TXD-4jACLcBGAs/s1600/ca4k-1.jpg

https://1.bp.blogspot.com/-VKLilZIoxEQ/WWjOLo8zMfI/AAAAAAAARzc/c-sETFKG_a4ImJD9rPf6XIMNYRu0o4wPQCLcBGAs/s1600/ca4k-2.jpg

https://3.bp.blogspot.com/-iKt6EPEUMY4/WWjOJ8oqNvI/AAAAAAAARzY/sSmZp0m_xy8t34qv_vQSCxOvj1eK42UtwCLcBGAs/s1600/ca4k-3.jpg

https://1.bp.blogspot.com/-3HTM4iKvPPk/WWjOLmU1J2I/AAAAAAAARzg/55ZoP-xhTv8IuM3fBNdgBI8hLvgU2KL6gCLcBGAs/s1600/ca4k-4.jpg

https://1.bp.blogspot.com/-h1EyBL2U99w/WWjOMrsHLWI/AAAAAAAARzk/Ghxr3_zKyjg3vTTd7qW0ZmX-c84SJyR7wCLcBGAs/s1600/ca4k-5.jpg



http://4.bp.blogspot.com/-ZJdJJ0sdVtI/VoVuX_CwhlI/AAAAAAAAABY/Xk7xERDvoxQ/s1600/mediainfo.png

General

Format : Matroska
Format version : Version 4 / Version 2
File size : 15.9 GiB
Duration : 2 h 0 min
Overall bit rate : 18.9 Mb/s
Movie name : The Huntsman Winter's War [Extended] (2016) 2160p 4K UHD Dual Audio Latino-Inglés
Encoded date : UTC 2017-07-13 03:47:05
Writing application : mkvmerge v9.9.0 ('Pick Up') 64bit
Writing library : libebml v1.3.4 + libmatroska v1.4.5

Video
ID : 1
Format : HEVC
Format/Info : High Efficiency Video Coding
Format profile : Main 10@L5.1@High
Codec ID : V_MPEGH/ISO/HEVC
Duration : 2 h 0 min
Bit rate : 13.6 Mb/s
Width : 3 840 pixels
Height : 1 600 pixels
Display aspect ratio : 2.40:1
Frame rate mode : Constant
Frame rate : 23.976 (24000/1001) FPS
Color space : YUV
Chroma subsampling : 4:2:0 (Type 2)
Bit depth : 10 bits
Bits/(Pixel*Frame) : 0.092
Stream size : 11.4 GiB (72%)
Title : The Huntsman Winter's War [Extended] (2016) 2160p 4K UHD Dual Audio Latino-Inglés
Language : English
Default : Yes
Forced : No

Audio #1
ID : 2
Format : DTS
Format/Info : Digital Theater Systems
Mode : 16
Format settings, Endianness : Big
Codec ID : A_DTS
Duration : 2 h 0 min
Bit rate mode : Constant
Bit rate : 1 509 kb/s
Channel(s) : 6 channels
Channel positions : Front: L C R, Side: L R, LFE
Sampling rate : 48.0 kHz
Frame rate : 93.750 FPS (512 spf)
Bit depth : 24 bits
Compression mode : Lossy
Stream size : 1.27 GiB (8%)
Title : DTS 7.1 Bluray
Language : Spanish
Default : Yes
Forced : No

Audio #2
ID : 3
Format : DTS
Format/Info : Digital Theater Systems
Format profile : X / MA / Core
Mode : 16
Format settings, Endianness : Big
Codec ID : A_DTS
Duration : 2 h 0 min
Bit rate mode : Variable / Variable / Constant
Bit rate : 3 840 kb/s / 3 840 kb/s / 1 509 kb/s
Channel(s) : Object Based / 8 channels / 6 channels
Channel positions : Object Based / Front: L C R, Side: L R, Back: L R, LFE / Front: L C R, Side: L R, LFE
Sampling rate : / 48.0 kHz / 48.0 kHz
Frame rate : 93.750 FPS (512 spf)
Bit depth : / 24 bits / 24 bits
Compression mode : / Lossless / Lossy
Stream size : 3.24 GiB (20%)
Title : DTS-MA
Language : English
Default : No
Forced : No

Text #1
ID : 4
Format : UTF-8
Codec ID : S_TEXT/UTF8
Codec ID/Info : UTF-8 Plain Text
Duration : 5 s 671 ms
Bit rate : 93 b/s
Count of elements : 1
Stream size : 66.0 Bytes (0%)
Title : Subtitulos_Forzados
Language : Spanish
Default : Yes
Forced : No

Text #2
ID : 5
Format : UTF-8
Codec ID : S_TEXT/UTF8
Codec ID/Info : UTF-8 Plain Text
Duration : 1 h 49 min
Bit rate : 37 b/s
Count of elements : 1139
Stream size : 29.8 KiB (0%)
Title : Subtitulos_Completos
Language : Spanish
Default : No
Forced : No

Menu
00:00:00.000 : en:0:00:00.000
00:06:26.427 : en:0:06:26.427
00:09:26.857 : en:0:09:26.857
00:15:03.193 : en:0:15:03.193
00:21:33.500 : en:0:21:33.500
00:30:17.857 : en:0:30:17.857
00:36:08.165 : en:0:36:08.165
00:40:55.661 : en:0:40:55.661
00:46:56.438 : en:0:46:56.438
00:52:05.747 : en:0:52:05.747
00:59:35.530 : en:0:59:35.530
01:04:23.943 : en:1:04:23.943
01:11:16.688 : en:1:11:16.688
01:15:19.222 : en:1:15:19.222
01:22:42.832 : en:1:22:42.832
01:28:15.206 : en:1:28:15.206
01:33:58.007 : en:1:33:58.007
01:39:21.955 : en:1:39:21.955
01:48:13.903 : en:1:48:13.903
01:50:19.571 : en:1:50:19.571




http://2.bp.blogspot.com/-d9wws3AK4xA/VoVuXpmbndI/AAAAAAAAABM/Cn89p0ialZk/s1600/descarga.png



Contraseña para extraer: www.club-hd.com

Nota: Los archivos .rev no es necesario descargar al menos que algun .rar este dañado o que este eliminado


https://2.bp.blogspot.com/-f-Heu-gHYfg/WT0MM72ek3I/AAAAAAAA1C4/SSIZXlReeg8ZDODC3ZTgWORZZPQOVuouQCLcB/s1600/OPENLOAD-VIP.png

**Hidden Content: Check the thread to see hidden data.**


http://2.bp.blogspot.com/-Raqd-2TRS84/VoVv8SWyIJI/AAAAAAAAAB8/NmyWEUdRUEc/s1600/Mega.jpg

**Hidden Content: Check the thread to see hidden data.**


https://2.bp.blogspot.com/-0prslAHZca8/VxApO3HzUyI/AAAAAAAACI0/lFOGr6l4EDEH1XjbM9uDlwnDx9SNkBTOACLcB/s1600/1FICHIER.jpg

**Hidden Content: Check the thread to see hidden data.**


http://3.bp.blogspot.com/-pfVg2-b18qs/VoVwmM8A3iI/AAAAAAAAACE/EjIStFsEEg0/s1600/up.jpg

**Hidden Content: Check the thread to see hidden data.**


https://1.bp.blogspot.com/-PE8m5kK7vYo/WJoNpVnuMnI/AAAAAAAA0go/jTlWOR0KOCEoUUzcNlzAqSRBkzh8nRT4QCLcB/s1600/OPENLOAD.png

**Hidden Content: Check the thread to see hidden data.**

bielo
14/07/2017, 11:35
Desc_g_

lakytu
14/07/2017, 12:47
gracias

jccasilloa
14/07/2017, 12:48
exelente aporte

cpola
14/07/2017, 13:57
Gracias

jccasilloa
14/07/2017, 14:33
gracias

costafede
14/07/2017, 14:57
Grazie nene!

neto6911
14/07/2017, 16:51
Muchas Gracias lla se esperaba el material 4K Desc_g_ :apls::apls:.

RickAnto
14/07/2017, 17:20
Muchas gracias!

Josiba
14/07/2017, 17:59
Desc_g_

crischapman
14/07/2017, 19:18
gracias!

freestyle
14/07/2017, 19:47
Gracias!!!

leuco88
14/07/2017, 21:41
gracias

novatoxp
14/07/2017, 21:50
Desc_g_

JCAvila
14/07/2017, 22:49
gracias!

Tony Stark
14/07/2017, 23:03
Desc_g_

troyano2010
15/07/2017, 00:34
Desc_g_

Chris2000
15/07/2017, 00:49
Gracias

fire9194
15/07/2017, 01:58
gracias, bajndo

mdieter
15/07/2017, 02:34
Desc_g_

suramericano
15/07/2017, 09:15
Gracias.

St@rLord
15/07/2017, 11:09
Desc_g_

jaimepb
15/07/2017, 12:27
gracias

muruagam
15/07/2017, 12:56
Desc_g_

flujo
15/07/2017, 14:25
gracias

juniorgarabo
15/07/2017, 14:33
Desc_g_

Jorge navas
16/07/2017, 00:24
Muchas gracias.

mathiasfx
16/07/2017, 09:49
gracias muy amable

jramirez05
16/07/2017, 17:22
gracias

shirley veloso
16/07/2017, 19:03
Desc_g_

samuelmayo
16/07/2017, 23:59
Desc_g_

cripp
17/07/2017, 11:53
Gracias por compartir

jucarperdor
17/07/2017, 22:20
Gracias por 4k muy bueno

hexa91
18/07/2017, 00:57
Gracias...

huascar
24/07/2017, 09:50
gracias

ARMAN777
30/07/2017, 02:15
Desc_g_

Prem1er
12/08/2017, 16:48
gracias por el aporte!

el guicho
13/08/2017, 01:10
gracias

consuelobarturen
16/08/2017, 13:06
graciassss

raiza
19/08/2017, 17:57
gracias :)

martin30
19/08/2017, 19:47
Muchas Gracias.
Saludos.

MegavetH
30/08/2017, 07:23
Gracias

sosalexfame
03/09/2017, 19:06
gracias

jairfon28
05/09/2017, 04:51
Gracias.

lobomarino
20/09/2017, 16:38
gRACIAS POR TU APORTE.-

zamwise
21/09/2017, 00:13
Gracias por el aporte

djayxavi
08/10/2017, 21:30
graciass

iori_2700
11/10/2017, 23:05
Desc_g_:pulgar1:

beaubinz
12/10/2017, 22:27
Desc_g_

Jamesgoz
03/11/2017, 18:00
gracias

mat-one
11/12/2017, 23:46
gracias

argentum
01/01/2018, 16:50
gracias amigos ,,, los mejores

wiios
20/01/2018, 03:44
Gracias!

tsubasa100
25/01/2018, 15:44
gracias!

gabrielx5
08/02/2018, 12:01
GRACIAS

vhrod
25/02/2018, 22:05
Desc_g_

ecuavideos
22/06/2018, 12:26
gracias

Andreslvl
24/06/2018, 22:44
Desc_g_

hombrelobo
07/08/2018, 21:51
gracias por la pelicula